Results 1 to 1 of 1
  1. #1

    Default WWE Wrestlemania 31 HDTV x264-RKOFAN1990

    Follow us on Social Media





    WWE Wrestlemania 31 HDTV x264-RKOFAN1990



    WWE.Wrestlemania.31.HDTV.x264-RKOFAN1990
    ---------------------------------------//VIDEO//-------------------------------------------
    Format : AVC
    Format/Info : Advanced Video Codec
    Format profile : [email protected]
    Format settings, CABAC : Yes
    Format settings, ReFrames : 3 frames
    Codec ID : avc1
    Codec ID/Info : Advanced Video Coding
    Duration : 3h 59mn
    Bit rate mode : Constant
    Bit rate : 2 311 Kbps
    Nominal bit rate : 1 450 Kbps
    Width : 768 pixels
    Height : 432 pixels
    Display aspect ratio : 16:9
    Frame rate mode : Variable
    Frame rate : 25 fps
    Standard : NTSC (USA)
    Color space : YUV
    Chroma subsampling : 4:2:0
    Bit depth : 8 bits
    Scan type : Progressive
    Bits/(Pixel*Frame) : 0.291
    Stream size : 3.87 GiB (95%)
    Language : English

    ---------------------------------------//AUDIO//-------------------------------------------
    Format : AAC
    Format/Info : Advanced Audio Codec
    Format profile : LC
    Codec ID : 40
    Duration : 3h 59mn
    Source duration : 3h 59mn
    Bit rate mode : Variable
    Bit rate : 128 Kbps
    Channel(s) : 2 channels
    Channel positions : Front: L R
    Sampling rate : 48.0 KHz
    Compression mode : Lossy
    Stream size : 39.7 MiB (1%)
    Source stream size : 210 MiB (5%)
    Language : English



    Become Premium for maximum speed, resuming ability and no waiting



    Code:
    ====== RAPIDGATOR ======
    http://rapidgator.net/file/93b58d4cfdc55f1a2524849c624bdf30/WWE.Wrestlemania.31.HDTV.x264-RKOFAN1990.mp4.html
    
    ====== UPLOADED ======
    http://uploaded.net/file/ove4xxb2/WWE.Wrestlemania.31.HDTV.x264-RKOFAN1990.mp4
    
    ====== Nitroflare ======
    http://www.nitroflare.com/view/4A5B65777DC486D/WWE.Wrestlemania.31.HDTV.x264-RKOFAN1990.mp4


    ========= ========= =========
    5 Parts Download Links
    ========= ========= =========
    Code:
    ====== UPLOADED ======
    http://uploaded.net/file/du0gd1s6/WWE.Wrestlemania.31.HDTV.x264-RKOFAN1990.part1.rar
    http://uploaded.net/file/h3bwwjpz/WWE.Wrestlemania.31.HDTV.x264-RKOFAN1990.part2.rar
    http://uploaded.net/file/ya4pu4rm/WWE.Wrestlemania.31.HDTV.x264-RKOFAN1990.part3.rar
    http://uploaded.net/file/yko5vrkt/WWE.Wrestlemania.31.HDTV.x264-RKOFAN1990.part4.rar
    http://uploaded.net/file/tcpw0uyw/WWE.Wrestlemania.31.HDTV.x264-RKOFAN1990.part5.rar
    
    ====== RAPIDGATOR ======
    http://rapidgator.net/file/a46448937bb521450b43e829eb11ee11/WWE.Wrestlemania.31.HDTV.x264-RKOFAN1990.part1.rar.html
    http://rapidgator.net/file/183cc0f6d2ba853672bdfe6fcf4d4572/WWE.Wrestlemania.31.HDTV.x264-RKOFAN1990.part2.rar.html
    http://rapidgator.net/file/cebec87c0f401eaa80257886c22d3ed1/WWE.Wrestlemania.31.HDTV.x264-RKOFAN1990.part3.rar.html
    http://rapidgator.net/file/b813ed847aa6ab39e0e2f2a8f45d2ced/WWE.Wrestlemania.31.HDTV.x264-RKOFAN1990.part4.rar.html
    http://rapidgator.net/file/0af530fd067c3fa3795bd224f7ca259c/WWE.Wrestlemania.31.HDTV.x264-RKOFAN1990.part5.rar.html





 

 

Posting Permissions

  • You may not post new threads
  • You may not post replies
  • You may not post attachments
  • You may not edit your posts
  •