Results 1 to 1 of 1
  1. #1

    Default WWE Royal Rumble 2015 540p WEB-DL 2400k x264 - DN

    Follow us on Social Media





    .

    WWE.Royal.Rumble.2015.540p.WEB-DL.2400k.x264-DN



    Title: WWE Royal Rumble 2015 (PPV)
    Genre: Wrestling
    Language/s: English
    Hoster: Uploaded.net, oboom.com
    Size: 2813,29 MB
    Parts: 1
    Password: NeXt

    nfo:

    [spoiler]
    Code:
    WWE.Royal.Rumble.2015.540p.WEB-DL.2400k.x264-DN.mp4
    Format                                   : MPEG-4
    Format profile                           : Base Media
    Codec ID                                 : isom
    File size                                : 2.75 GiB
    Duration                                 : 2h 43mn
    Overall bit rate mode                    : Variable
    Overall bit rate                         : 2 407 Kbps
    Writing application                      : Lavf55.32.101
    
    Video
    ID                                       : 1
    Format                                   : AVC
    Format/Info                              : Advanced Video Codec
    Format profile                           : [email protected]
    Format settings, CABAC                   : Yes
    Format settings, ReFrames                : 4 frames
    Codec ID                                 : avc1
    Codec ID/Info                            : Advanced Video Coding
    Duration                                 : 2h 43mn
    Bit rate mode                            : Constant
    Bit rate                                 : 2 272 Kbps
    Width                                    : 960 pixels
    Height                                   : 540 pixels
    Display aspect ratio                     : 16:9
    Frame rate mode                          : Constant
    Frame rate                               : 29.970 fps
    Color space                              : YUV
    Chroma subsampling                       : 4:2:0
    Bit depth                                : 8 bits
    Scan type                                : Progressive
    Bits/(Pixel*Frame)                       : 0.146
    Stream size                              : 2.59 GiB (94%)
    
    Audio
    ID                                       : 2
    Format                                   : AAC
    Format/Info                              : Advanced Audio Codec
    Format profile                           : LC
    Codec ID                                 : 40
    Duration                                 : 2h 43mn
    Bit rate mode                            : Variable
    Bit rate                                 : 125 Kbps
    Maximum bit rate                         : 128 Kbps
    Channel(s)                               : 2 channels
    Channel positions                        : Front: L R
    Sampling rate                            : 48.0 KHz
    Compression mode                         : Lossy
    Stream size                              : 147 MiB (5%)
    
    Text
    ID                                       : 1-CC1
    Format                                   : EIA-608
    Muxing mode                              : SCTE 128 / DTVCC Transport
    Muxing mode, more info                   : Muxed in Video #1
    Duration                                 : 2h 43mn
    Bit rate mode                            : Constant
    [/spoiler]

    Mirror: 1

    Uploaded.net
    Code:
    http://uploaded.net/file/i9fw03aq/WWE.Royal.Rumble.2015.540p.WEB-DL.2400k.x264-DN.mp4
    Mirror: 2

    oboom.com
    Code:
    http://www.oboom.com/3PSWWWX8
    Mirror: 1

    Share-online.biz
    Code:
    http://www.share-online.biz/dl/FG4HTRIN41BH
    http://www.share-online.biz/dl/FT9HTRINJ4S
    http://www.share-online.biz/dl/E3TGTRIN2TJ
    http://www.share-online.biz/dl/QS4HTRININTC
    http://www.share-online.biz/dl/4LNGTRIN92
    http://www.share-online.biz/dl/FNJGTRIN7M0
    http://www.share-online.biz/dl/9EBGTRINUZ
    http://www.share-online.biz/dl/7MJGTRINM9EE
    http://www.share-online.biz/dl/XV2GTRIN1PCZ
    http://www.share-online.biz/dl/237GTRIN8S
    http://www.share-online.biz/dl/T8QFTRINWQJ
    http://www.share-online.biz/dl/GOWFTRIN6DM
    http://www.share-online.biz/dl/BXDFTRINJF1H
    http://www.share-online.biz/dl/U7HFTRINIAO
    http://www.share-online.biz/dl/501FTRINIS5
    Mirror: 2

    Uploaded.net
    Code:
    http://uploaded.net/file/0xpphc8z/WWE.Royal.Rumble.2015.540p.part05.rar
    http://uploaded.net/file/5iretgg5/WWE.Royal.Rumble.2015.540p.part05.rar
    http://uploaded.net/file/oy5d5ixf/WWE.Royal.Rumble.2015.540p.part01.rar
    http://uploaded.net/file/iotkla9n/WWE.Royal.Rumble.2015.540p.part02.rar
    http://uploaded.net/file/sjf24bfc/WWE.Royal.Rumble.2015.540p.part03.rar
    http://uploaded.net/file/57lqsuzh/WWE.Royal.Rumble.2015.540p.part04.rar
    http://uploaded.net/file/rk5s2nj9/WWE.Royal.Rumble.2015.540p.part06.rar
    http://uploaded.net/file/dkfordrx/WWE.Royal.Rumble.2015.540p.part07.rar
    http://uploaded.net/file/zd03i0vi/WWE.Royal.Rumble.2015.540p.part09.rar
    http://uploaded.net/file/msa5czvi/WWE.Royal.Rumble.2015.540p.part08.rar
    http://uploaded.net/file/551wo6ww/WWE.Royal.Rumble.2015.540p.part10.rar
    http://uploaded.net/file/n4ubowjg/WWE.Royal.Rumble.2015.540p.part12.rar
    http://uploaded.net/file/gmxxe35w/WWE.Royal.Rumble.2015.540p.part11.rar
    http://uploaded.net/file/hi328zlr/WWE.Royal.Rumble.2015.540p.part13.rar
    http://uploaded.net/file/htpy88ov/WWE.Royal.Rumble.2015.540p.part14.rar
    http://uploaded.net/file/c5qz9nhs/WWE.Royal.Rumble.2015.540p.part15.rar
    Mirror: 3

    oboom.com
    Code:
    https://www.oboom.com/DX04R3XZ/WWE.Royal.Rumble.2015.540p.part15.rar
    https://www.oboom.com/YAQBMNOX/WWE.Royal.Rumble.2015.540p.part14.rar
    https://www.oboom.com/424WXDOH/WWE.Royal.Rumble.2015.540p.part13.rar
    https://www.oboom.com/9HOGDCV5/WWE.Royal.Rumble.2015.540p.part12.rar
    https://www.oboom.com/RO2VSD3X/WWE.Royal.Rumble.2015.540p.part11.rar
    https://www.oboom.com/Z3SP2YO8/WWE.Royal.Rumble.2015.540p.part10.rar
    https://www.oboom.com/RRQ41CP5/WWE.Royal.Rumble.2015.540p.part09.rar
    https://www.oboom.com/HK8OAKNK/WWE.Royal.Rumble.2015.540p.part08.rar
    https://www.oboom.com/IGNCRZZT/WWE.Royal.Rumble.2015.540p.part07.rar
    https://www.oboom.com/MKG7DQFW/WWE.Royal.Rumble.2015.540p.part06.rar
    https://www.oboom.com/GJB3A0AR/WWE.Royal.Rumble.2015.540p.part05.rar
    https://www.oboom.com/VYA7Q4BM/WWE.Royal.Rumble.2015.540p.part03.rar
    https://www.oboom.com/S29ANNOR/WWE.Royal.Rumble.2015.540p.part04.rar
    https://www.oboom.com/1CJNQ1Q3/WWE.Royal.Rumble.2015.540p.part02.rar
    https://www.oboom.com/IJQWCG60/WWE.Royal.Rumble.2015.540p.part01.rar
    .
    Last edited by NeXT_Generation; 01-26-2015 at 12:26 PM.

 

 

Posting Permissions

  • You may not post new threads
  • You may not post replies
  • You may not post attachments
  • You may not edit your posts
  •