Results 1 to 1 of 1
  1. #1
    Super Member www.desirulez.net
    Join Date
    Feb 2013
    Posts
    261

    Thumbs up Dolly Ki Doli (2015) Theatrical Trailer [1080P MP4] Feat. Sonam Kapoor, Pulkit Samrat

    Follow us on Social Media






    Dolly Ki Doli (2015) Theatrical Trailer [1080P MP4] Feat. Sonam Kapoor, Pulkit Samrat




    Poster










    Format : MPEG-4
    Format profile : Base Media
    Codec ID : isom
    File size : 59.4 MiB
    Duration : 2mn 14s
    Overall bit rate : 3 695 Kbps
    Writing application : Lavf54.18.100




    Video


    ID : 1
    Format : AVC
    Format/Info : Advanced Video Codec
    Format profile : [email protected]
    Format settings, CABAC : Yes
    Format settings, ReFrames : 2 frames
    Codec ID : avc1
    Codec ID/Info : Advanced Video Coding
    Duration : 2mn 14s
    Bit rate : 3 564 Kbps
    Width : 1 920 pixels
    Height : 1 080 pixels
    Display aspect ratio : 16:9
    Frame rate mode : Constant
    Frame rate : 24.000 fps
    Color space : YUV
    Chroma subsampling : 4:2:0
    Bit depth : 8 bits
    Scan type : Progressive
    Bits/(Pixel*Frame) : 0.072
    Stream size : 57.3 MiB (96%)



    Audio


    ID : 2
    Format : AAC
    Format/Info : Advanced Audio Codec
    Format profile : LC
    Codec ID : 40
    Duration : 2mn 14s
    Bit rate mode : Constant
    Bit rate : 126 Kbps
    Channel(s) : 2 channels
    Channel positions : Front: L R
    Sampling rate : 44.1 KHz
    Compression mode : Lossy
    Stream size : 2.01 MiB (3%)























    Code:
    
    www.hugefiles.net/zmu33euxyfk8
    
    www.uptobox.com/oor4g293k39u
    
    www.usersfiles.com/0b836vrbsu5r
    
    www.billionuploads.com/9hs6voj4acxy
    




    All thread started by me

    http://www.desirulez.net/search.php?do=finduser&userid=239044&starteronly=1&contenttype=vBForum_Thread

 

 

Posting Permissions

  • You may not post new threads
  • You may not post replies
  • You may not post attachments
  • You may not edit your posts
  •