Results 1 to 2 of 2
  1. #1
    Super Member www.desirulez.net
    Join Date
    Feb 2013
    Posts
    261

    Cool Baby (2015) Theatrical Trailer HD [720p] [1080P] [MP4] Feat. Akshay Kumar , Tapsee Pannu

    Follow us on Social Media






    Baby (2015) Theatrical Trailer HD 720p Feat. Akshay Kumar , Tapsee Pannu



    Poster :









    Starring : Akshay Kumar and Tapsee Pannu
    Size : 28.4 MB
    File Type : Mp4




















    Code:
    
    www.hugefiles.net/hd2hyzhnmmp4
    
    www.uptobox.com/8pn9xx55l3qa
    
    www.usersfiles.com/d789y7hkrhhi
    





    All thread started by me

    http://www.desirulez.net/search.php?do=finduser&userid=239044&starteronly=1&contenttype=vBForum_Thread

  2. #2
    Super Member www.desirulez.net
    Join Date
    Feb 2013
    Posts
    261

    Default


    Baby (2015) Theatrical Trailer [1080P MP4][ExD$R] Feat. Akshay Kumar , Tapsee Pannu





    Akshay Kumar as Ajay, India's Counter Intelligence Agent
    Madhurima Tuli as Ajay's wife
    Taapsee Pannu as Priya
    Rana Daggubati as Jai, The strongman of the unit
    Danny Denzongpa as Firoz, Master Strategist and Chief of Undercover Unit
    Anupam Kher as Shuklaji, Techie of the unit
    Sushant Singh
    Kay Kay Menon in a Cameo






    General


    Format : MPEG-4
    Format profile : Base Media
    Codec ID : isom
    File size : 50.0 MiB
    Duration : 2mn 14s
    Overall bit rate : 3 132 Kbps
    Writing application : Lavf54.18.100


    Video


    ID : 1
    Format : AVC
    Format/Info : Advanced Video Codec
    Format profile : [email protected]
    Format settings, CABAC : Yes
    Format settings, ReFrames : 2 frames
    Codec ID : avc1
    Codec ID/Info : Advanced Video Coding
    Duration : 2mn 13s
    Bit rate : 3 021 Kbps
    Width : 1 920 pixels
    Height : 1 080 pixels
    Display aspect ratio : 16:9
    Frame rate mode : Constant
    Frame rate : 24.000 fps
    Color space : YUV
    Chroma subsampling : 4:2:0
    Bit depth : 8 bits
    Scan type : Progressive
    Bits/(Pixel*Frame) : 0.061
    Stream size : 47.9 MiB (96%)


    Audio


    ID : 2
    Format : AAC
    Format/Info : Advanced Audio Codec
    Format profile : LC
    Codec ID : 40
    Duration : 2mn 14s
    Bit rate mode : Constant
    Bit rate : 126 Kbps
    Channel(s) : 2 channels
    Channel positions : Front: L R
    Sampling rate : 44.1 KHz
    Compression mode : Lossy
    Stream size : 2.01 MiB (4%)


















    Code:
    
    www.hugefiles.net/wql97gel81gp
    
    www.usersfiles.com/dtihhqw8oc5t
    
    www.uptobox.com/txgg9g4th50o
    
    www.billionuploads.com/yff0w6271g7w
    





    All thread started by me

    http://www.desirulez.net/search.php?do=finduser&userid=239044&starteronly=1&contenttype=vBForum_Thread

 

 

Posting Permissions

  • You may not post new threads
  • You may not post replies
  • You may not post attachments
  • You may not edit your posts
  •