Results 1 to 1 of 1
  1. #1
    Super Member www.desirulez.net
    Join Date
    Feb 2013
    Posts
    261

    Thumbs up Badlapur (2015) Feat Varun Dhawan,Nawazuddin Siddiqui Teaser Trailer 1080P

    Follow us on Social Media






    Badlapur (2015) Feat Varun Dhawan,Nawazuddin Siddiqui Teaser Trailer 1080P



    Poster :








    General


    Format : MPEG-4
    Format profile : Base Media
    Codec ID : isom
    File size : 35.6 MiB
    Duration : 1mn 40s
    Overall bit rate : 2 961 Kbps
    Writing application : Lavf54.18.100



    Video


    ID : 1
    Format : AVC
    Format/Info : Advanced Video Codec
    Format profile : [email protected]
    Format settings, CABAC : Yes
    Format settings, ReFrames : 2 frames
    Codec ID : avc1
    Codec ID/Info : Advanced Video Coding
    Duration : 1mn 40s
    Bit rate : 2 830 Kbps
    Width : 1 920 pixels
    Height : 1 080 pixels
    Display aspect ratio : 16:9
    Frame rate mode : Constant
    Frame rate : 25.000 fps
    Color space : YUV
    Chroma subsampling : 4:2:0
    Bit depth : 8 bits
    Scan type : Progressive
    Bits/(Pixel*Frame) : 0.055
    Stream size : 34.0 MiB (96%)



    Audio


    ID : 2
    Format : AAC
    Format/Info : Advanced Audio Codec
    Format profile : LC
    Codec ID : 40
    Duration : 1mn 40s
    Bit rate mode : Constant
    Bit rate : 126 Kbps
    Channel(s) : 2 channels
    Channel positions : Front: L R
    Sampling rate : 44.1 KHz
    Compression mode : Lossy
    Stream size : 1.50 MiB (4%)
    [/B]






















    Code:
    
    www.hugefiles.net/bpyi1r36qtw4
    
    www.uptobox.com/mjd89mao7qzt
    
    www.usersfiles.com/g6dcwqswrpvu
    
    www.billionuploads.com/gakcd6w4q95n
    
    www.kingfiles.net/e6fr38ef3iza/Badlapur_Official_Teaser_Varun_Dhawan__Nawazuddin_Siddiqui__Huma_Qureshi__Yami_Gautam.mp4
    
    www.uploadboy.com/30zl80dbyvni.html
    




    [/B]
    All thread started by me

    http://www.desirulez.net/search.php?do=finduser&userid=239044&starteronly=1&contenttype=vBForum_Thread

 

 

Posting Permissions

  • You may not post new threads
  • You may not post replies
  • You may not post attachments
  • You may not edit your posts
  •