Results 1 to 1 of 1
  1. #1
    Super Member www.desirulez.net
    Join Date
    Feb 2012
    Posts
    306

    Thumbs up +18 ZID (2014) Official Trailer Ft.Mannara Shraddha Das X264 Web HD 1080p

    Follow us on Social Media







    Complete name : ZID Uncut Trailer Mannara Karanvir Sharma Shraddha Das [ExD$R].mp4
    Format : MPEG-4
    Format profile : Base Media
    Codec ID : isom
    File size : 53.7 MiB
    Duration : 2mn 28s
    Overall bit rate : 3 029 Kbps
    Writing application : Lavf54.18.100

    Video
    ID : 1
    Format : AVC
    Format/Info : Advanced Video Codec
    Format profile : [email protected]
    Format settings, CABAC : Yes
    Format settings, ReFrames : 2 frames
    Codec ID : avc1
    Codec ID/Info : Advanced Video Coding
    Duration : 2mn 28s
    Bit rate : 2 904 Kbps
    Width : 1 920 pixels
    Height : 1 080 pixels
    Display aspect ratio : 16:9
    Frame rate mode : Constant
    Frame rate : 24.000 fps
    Color space : YUV
    Chroma subsampling : 4:2:0
    Bit depth : 8 bits
    Scan type : Progressive
    Bits/(Pixel*Frame) : 0.058
    Stream size : 51.4 MiB (96%)

    Audio
    ID : 2
    Format : AAC
    Format/Info : Advanced Audio Codec
    Format profile : LC
    Codec ID : 40
    Duration : 2mn 28s
    Bit rate mode : Constant
    Bit rate : 126 Kbps
    Channel(s) : 2 channels
    Channel positions : Front: L R
    Sampling rate : 44.1 KHz
    Compression mode : Lossy
    Stream size : 2.23 MiB (4%)










    Size 53.7 MB...

    Code:
    http://xerver.co/591576x44br8/ZID.mp4
    Code:
    http://www.filedais.com/k5i3yhgj47j2.htm

 

 

Posting Permissions

  • You may not post new threads
  • You may not post replies
  • You may not post attachments
  • You may not edit your posts
  •