Results 1 to 1 of 1
  1. #1

    Default WWE Hell In A Cell 2014 German WEB - DL H264 - WU

    Follow us on Social Media





    .

    WWE.Hell.In.A.Cell.2014.German.WEB-DL.H264-WU



    Title: WWE Hell in a Cell 2014 (PPV)
    Genre: Wrestling
    Language/s: German
    Hoster: Uploaded.net, oboom.com, Share-online.biz
    Size: 2531,71 MB
    Parts: 13
    Password: NeXt

    Hell in a Cell (2014) was a professional wrestling pay-per-view (PPV) event produced by WWE. It took place on October 26, 2014 at the American Airlines Center in Dallas, Texas.

    nfo:

    [spoiler]
    Code:
    WWE.Hell.In.A.Cell.2014.German.WEB-DL.H264-WU.flv
    Format                                   : Flash Video
    File size                                : 2.40 GiB
    Duration                                 : 2h 57mn
    Overall bit rate                         : 1 939 Kbps
    Writing application                      : Open Broadcaster Software v0.637b
    fileSize                                 : 2577579213.000
    
    Video
    Duration                                 : 2h 57mn
    Bit rate                                 : 1 800 Kbps
    Width                                    : 1 920 pixels
    Height                                   : 1 080 pixels
    Display aspect ratio                     : 16:9
    Frame rate mode                          : Constant
    Frame rate                               : 30.000 fps
    Bits/(Pixel*Frame)                       : 0.029
    Stream size                              : 2.23 GiB (93%)
    
    Audio
    Format                                   : AAC
    Format/Info                              : Advanced Audio Codec
    Format profile                           : LC
    Codec ID                                 : 10
    Duration                                 : 2h 57mn
    Bit rate                                 : 128 Kbps
    Channel(s)                               : 2 channels
    Channel positions                        : Front: L R
    Sampling rate                            : 48.0 KHz
    Compression mode                         : Lossy
    Stream size                              : 162 MiB (7%)
    [/spoiler]

    Mirror: 1

    Uploaded.net
    Code:
    http://uploaded.net/file/hpzt3rup/Cell.2014.German.part12.rar
    http://uploaded.net/file/ic1pdv8h/Cell.2014.German.part13.rar
    http://uploaded.net/file/w57x6mbr/Cell.2014.German.part11.rar
    http://uploaded.net/file/60fwv2du/Cell.2014.German.part10.rar
    http://uploaded.net/file/h9cidkvf/Cell.2014.German.part09.rar
    http://uploaded.net/file/5y1g6jwe/Cell.2014.German.part06.rar
    http://uploaded.net/file/shmnkvbo/Cell.2014.German.part08.rar
    http://uploaded.net/file/wskm1hmk/Cell.2014.German.part07.rar
    http://uploaded.net/file/ln471u75/Cell.2014.German.part05.rar
    http://uploaded.net/file/njtzywb9/Cell.2014.German.part04.rar
    http://uploaded.net/file/o5yrecnr/Cell.2014.German.part03.rar
    http://uploaded.net/file/0vsvnlnj/Cell.2014.German.part02.rar
    http://uploaded.net/file/57gpdgcv/Cell.2014.German.part01.rar
    Mirror: 2

    oboom.com
    Code:
    https://www.oboom.com/AEBRKSAG/Cell.2014.German.part01.rar
    https://www.oboom.com/98H9DOMU/Cell.2014.German.part02.rar
    https://www.oboom.com/1BGZYRM4/Cell.2014.German.part03.rar
    https://www.oboom.com/8VT4H1PI/Cell.2014.German.part04.rar
    https://www.oboom.com/WTHE624M/Cell.2014.German.part05.rar
    https://www.oboom.com/XPX36AFI/Cell.2014.German.part06.rar
    https://www.oboom.com/WFMSF3NB/Cell.2014.German.part07.rar
    https://www.oboom.com/PMS9TRL5/Cell.2014.German.part08.rar
    https://www.oboom.com/3LYCBJPJ/Cell.2014.German.part09.rar
    https://www.oboom.com/F88WH9GT/Cell.2014.German.part10.rar
    https://www.oboom.com/29CK51T9/Cell.2014.German.part11.rar
    https://www.oboom.com/DLOJY0AS/Cell.2014.German.part12.rar
    https://www.oboom.com/NBKOMPMK/Cell.2014.German.part13.rar
    Mirror: 3

    Share-online.biz
    Code:
    http://www.share-online.biz/dl/ITNTA4ENZ48N
    http://www.share-online.biz/dl/988UA4ENW06
    http://www.share-online.biz/dl/7XOUA4ENDA5
    http://www.share-online.biz/dl/DX9VA4ENB5
    http://www.share-online.biz/dl/5HTVA4ENJ5
    http://www.share-online.biz/dl/Z19WA4ENPW4
    http://www.share-online.biz/dl/H5QWA4EN1MH
    http://www.share-online.biz/dl/HB3XA4ENZHQ
    http://www.share-online.biz/dl/Y8JXA4EN7TO
    http://www.share-online.biz/dl/DPKYA4ENQ8
    http://www.share-online.biz/dl/8SLYA4ENM8G9
    http://www.share-online.biz/dl/HI4ZA4ENEZZT
    http://www.share-online.biz/dl/29B1B4EN1AOP
    .

 

 

Posting Permissions

  • You may not post new threads
  • You may not post replies
  • You may not post attachments
  • You may not edit your posts
  •