Results 1 to 1 of 1
  1. #1

    Default WWE.Hell.in.a.Cell.2014.540p.WEB-DL.2400k.x264-DN

    Follow us on Social Media





    .

    WWE.Hell.in.a.Cell.2014.540p.WEB-DL.2400k.x264-DN



    Title: WWE Hell in a Cell 2014 (PPV)
    Genre: Wrestling
    Language/s: English
    Hoster: Uploaded.net, Share-online.biz, oboom.com
    Size: 3131,17 MB
    Parts: 16
    Password: NeXt

    Hell in a Cell (2014) was a professional wrestling pay-per-view (PPV) event produced by WWE. It took place on October 26, 2014 at the American Airlines Center in Dallas, Texas.

    nfo:

    [spoiler]
    Code:
    WWE.Hell.in.a.Cell.2014.540p.WEB-DL.2400k.x264-DN.mp4
    Format                                   : MPEG-4
    Format profile                           : Base Media
    Codec ID                                 : isom
    File size                                : 2.97 GiB
    Duration                                 : 2h 56mn
    Overall bit rate mode                    : Constant
    Overall bit rate                         : 2 407 Kbps
    Writing application                      : Lavf55.32.101
    
    Video
    ID                                       : 1
    Format                                   : AVC
    Format/Info                              : Advanced Video Codec
    Format profile                           : [email protected]
    Format settings, CABAC                   : Yes
    Format settings, ReFrames                : 4 frames
    Codec ID                                 : avc1
    Codec ID/Info                            : Advanced Video Coding
    Duration                                 : 2h 56mn
    Bit rate mode                            : Constant
    Bit rate                                 : 2 272 Kbps
    Width                                    : 960 pixels
    Height                                   : 540 pixels
    Display aspect ratio                     : 16:9
    Frame rate mode                          : Constant
    Frame rate                               : 29.970 fps
    Color space                              : YUV
    Chroma subsampling                       : 4:2:0
    Bit depth                                : 8 bits
    Scan type                                : Progressive
    Bits/(Pixel*Frame)                       : 0.146
    Stream size                              : 2.80 GiB (94%)
    
    Audio
    ID                                       : 2
    Format                                   : AAC
    Format/Info                              : Advanced Audio Codec
    Format profile                           : LC
    Codec ID                                 : 40
    Duration                                 : 2h 56mn
    Bit rate mode                            : Constant
    Bit rate                                 : 125 Kbps
    Channel(s)                               : 2 channels
    Channel positions                        : Front: L R
    Sampling rate                            : 48.0 KHz
    Compression mode                         : Lossy
    Stream size                              : 158 MiB (5%)
    [/spoiler]

    Mirror: 1

    Uploaded.net
    Code:
    http://uploaded.net/file/xsr6s39x/Cell.2014.540p.part15.rar
    http://uploaded.net/file/yka62p70/Cell.2014.540p.part16.rar
    http://uploaded.net/file/qum95n3r/Cell.2014.540p.part14.rar
    http://uploaded.net/file/tk87z2hz/Cell.2014.540p.part13.rar
    http://uploaded.net/file/hb00hy1v/Cell.2014.540p.part12.rar
    http://uploaded.net/file/arz5culu/Cell.2014.540p.part11.rar
    http://uploaded.net/file/9smq6z1q/Cell.2014.540p.part10.rar
    http://uploaded.net/file/ovwbera2/Cell.2014.540p.part09.rar
    http://uploaded.net/file/o2qsyk2d/Cell.2014.540p.part07.rar
    http://uploaded.net/file/fdqc71sy/Cell.2014.540p.part08.rar
    http://uploaded.net/file/2p6hh8y8/Cell.2014.540p.part05.rar
    http://uploaded.net/file/so2jmm9d/Cell.2014.540p.part06.rar
    http://uploaded.net/file/5nsy1rqd/Cell.2014.540p.part04.rar
    http://uploaded.net/file/qbnkw187/Cell.2014.540p.part03.rar
    http://uploaded.net/file/ak83oosr/Cell.2014.540p.part02.rar
    http://uploaded.net/file/al4rzfo5/Cell.2014.540p.part01.rar
    Mirror: 2

    Share-online.biz
    Code:
    http://www.share-online.biz/dl/VJD3L3EN5G2
    http://www.share-online.biz/dl/AKY3L3EN1GZ
    http://www.share-online.biz/dl/FVJ4L3ENXV
    http://www.share-online.biz/dl/T135L3ENJMX
    http://www.share-online.biz/dl/HNM5L3ENJZ
    http://www.share-online.biz/dl/DR86L3EN2H1
    http://www.share-online.biz/dl/HTT6L3ENJIF7
    http://www.share-online.biz/dl/A6F7L3ENOI
    http://www.share-online.biz/dl/O6Z7L3ENYP
    http://www.share-online.biz/dl/1CL8L3ENC7X
    http://www.share-online.biz/dl/IN69L3EN1PM3
    http://www.share-online.biz/dl/Q1S9L3EN37
    http://www.share-online.biz/dl/DUDAL3ENHXE
    http://www.share-online.biz/dl/YTXAL3ENUO
    http://www.share-online.biz/dl/RHHBL3ENXIB
    http://www.share-online.biz/dl/GGUBL3EN30
    Mirror: 3

    oboom.com
    Code:
    https://www.oboom.com/ZA65U20X/Cell.2014.540p.part01.rar
    https://www.oboom.com/DSNAARF1/Cell.2014.540p.part02.rar
    https://www.oboom.com/P79K7DBK/Cell.2014.540p.part03.rar
    https://www.oboom.com/I2U4QINE/Cell.2014.540p.part04.rar
    https://www.oboom.com/9PHAXGZ9/Cell.2014.540p.part05.rar
    https://www.oboom.com/B3UJULHV/Cell.2014.540p.part06.rar
    https://www.oboom.com/3MWPFPGH/Cell.2014.540p.part07.rar
    https://www.oboom.com/5WURG2NJ/Cell.2014.540p.part08.rar
    https://www.oboom.com/NDJ3JH6E/Cell.2014.540p.part09.rar
    https://www.oboom.com/9CDUUWVX/Cell.2014.540p.part10.rar
    https://www.oboom.com/J3I7AWUB/Cell.2014.540p.part11.rar
    https://www.oboom.com/WPTUB350/Cell.2014.540p.part12.rar
    https://www.oboom.com/EF05SQ6R/Cell.2014.540p.part13.rar
    https://www.oboom.com/31SIRUPC/Cell.2014.540p.part14.rar
    https://www.oboom.com/8ZK2TGOC/Cell.2014.540p.part15.rar
    https://www.oboom.com/8W3XHUZO/Cell.2014.540p.part16.rar
    .

 

 

Posting Permissions

  • You may not post new threads
  • You may not post replies
  • You may not post attachments
  • You may not edit your posts
  •