Results 1 to 1 of 1
  1. #1

    Default WWE.Hell.in.a.Cell.2014.360p.WEB - DL.1200k.x264 - DN

    Follow us on Social Media





    .

    WWE.Hell.in.a.Cell.2014.360p.WEB-DL.1200k.x264-DN



    Title: WWE Hell in a Cell 2014 (PPV)
    Genre: Wrestling
    Language/s: English
    Hoster: oboom.com, Uploaded.net, Share-online.biz
    Size: 1570,21 MB
    Parts: 8
    Password: NeXt

    Hell in a Cell (2014) was a professional wrestling pay-per-view (PPV) event produced by WWE. It took place on October 26, 2014 at the American Airlines Center in Dallas, Texas.

    nfo:

    [spoiler]
    Code:
    WWE.Hell.in.a.Cell.2014.360p.WEB-DL.1200k.x264-DN.mp4
    Format                                   : MPEG-4
    Format profile                           : Base Media
    Codec ID                                 : isom
    File size                                : 1.49 GiB
    Duration                                 : 2h 56mn
    Overall bit rate mode                    : Variable
    Overall bit rate                         : 1 207 Kbps
    Writing application                      : Lavf55.32.101
    
    Video
    ID                                       : 1
    Format                                   : AVC
    Format/Info                              : Advanced Video Codec
    Format profile                           : [email protected]
    Format settings, CABAC                   : Yes
    Format settings, ReFrames                : 4 frames
    Codec ID                                 : avc1
    Codec ID/Info                            : Advanced Video Coding
    Duration                                 : 2h 56mn
    Bit rate mode                            : Constant
    Bit rate                                 : 1 104 Kbps
    Width                                    : 640 pixels
    Height                                   : 360 pixels
    Display aspect ratio                     : 16:9
    Frame rate mode                          : Constant
    Frame rate                               : 29.970 fps
    Color space                              : YUV
    Chroma subsampling                       : 4:2:0
    Bit depth                                : 8 bits
    Scan type                                : Progressive
    Bits/(Pixel*Frame)                       : 0.160
    Stream size                              : 1.36 GiB (92%)
    
    Audio
    ID                                       : 2
    Format                                   : AAC
    Format/Info                              : Advanced Audio Codec
    Format profile                           : LC
    Codec ID                                 : 40
    Duration                                 : 2h 56mn
    Bit rate mode                            : Variable
    Bit rate                                 : 93.5 Kbps
    Maximum bit rate                         : 101 Kbps
    Channel(s)                               : 2 channels
    Channel positions                        : Front: L R
    Sampling rate                            : 48.0 KHz
    Compression mode                         : Lossy
    Stream size                              : 118 MiB (8%)
    [/spoiler]

    Mirror: 1

    oboom.com
    Code:
    https://www.oboom.com/UC0FA9PN/Cell.2014.360p.part1.rar
    https://www.oboom.com/EC6GCH1Z/Cell.2014.360p.part2.rar
    https://www.oboom.com/N37SP5F2/Cell.2014.360p.part3.rar
    https://www.oboom.com/24Y6038H/Cell.2014.360p.part4.rar
    https://www.oboom.com/MSIDYTBU/Cell.2014.360p.part5.rar
    https://www.oboom.com/RIMRM890/Cell.2014.360p.part6.rar
    https://www.oboom.com/26PNT80I/Cell.2014.360p.part7.rar
    https://www.oboom.com/HB0GVNMU/Cell.2014.360p.part8.rar
    Mirror: 2

    Uploaded.net
    Code:
    http://uploaded.net/file/rzafhew4/Cell.2014.360p.part7.rar
    http://uploaded.net/file/te15ssyn/Cell.2014.360p.part8.rar
    http://uploaded.net/file/jx316vnh/Cell.2014.360p.part5.rar
    http://uploaded.net/file/oos3xjfn/Cell.2014.360p.part6.rar
    http://uploaded.net/file/gs45xk5q/Cell.2014.360p.part4.rar
    http://uploaded.net/file/a8b4qvnf/Cell.2014.360p.part3.rar
    http://uploaded.net/file/y705blig/Cell.2014.360p.part2.rar
    http://uploaded.net/file/qs5lgtml/Cell.2014.360p.part1.rar
    Mirror: 3

    Share-online.biz
    Code:
    http://www.share-online.biz/dl/RFOMK3END48K
    http://www.share-online.biz/dl/VB7NK3EN912B
    http://www.share-online.biz/dl/4HONK3EN3Q8
    http://www.share-online.biz/dl/GY4OK3ENJQ2
    http://www.share-online.biz/dl/40JOK3EN6048
    http://www.share-online.biz/dl/A30PK3EN9IJ8
    http://www.share-online.biz/dl/OZFPK3ENF0
    http://www.share-online.biz/dl/HLLPK3ENMLO
    .

 

 

Posting Permissions

  • You may not post new threads
  • You may not post replies
  • You may not post attachments
  • You may not edit your posts
  •