Results 1 to 2 of 2
  1. #1

    Default WWE.Hell.in.a.Cell.2014.Kickoff.720p.WEB-DL.4500k.x264 - DN

    Follow us on Social Media





    .

    WWE.Hell.in.a.Cell.2014.Kickoff.720p.WEB-DL.4500k.x264-DN



    Title: WWE Hell in a Cell 2014 (Kickoff)
    Genre: Wrestling
    Language/s: English
    Hoster: Uploaded.net, Share-online.biz, oboom.com, Load.to
    Size: 1944,34 MB
    Parts: 10
    Password: NeXt

    Hell in a Cell (2014) was a professional wrestling pay-per-view (PPV) event produced by WWE. It took place on October 26, 2014 at the American Airlines Center in Dallas, Texas.

    nfo:

    [spoiler]
    Code:
    WWE.Hell.in.a.Cell.2014.Kickoff.720p.WEB-DL.4500k.x264-DN.mp4
    Format                                   : MPEG-4
    Format profile                           : Base Media
    Codec ID                                 : isom
    File size                                : 1.84 GiB
    Duration                                 : 58mn 33s
    Overall bit rate mode                    : Variable
    Overall bit rate                         : 4 507 Kbps
    Writing application                      : Lavf55.32.101
    
    Video
    ID                                       : 1
    Format                                   : AVC
    Format/Info                              : Advanced Video Codec
    Format profile                           : [email protected]
    Format settings, CABAC                   : Yes
    Format settings, ReFrames                : 4 frames
    Codec ID                                 : avc1
    Codec ID/Info                            : Advanced Video Coding
    Duration                                 : 58mn 33s
    Bit rate mode                            : Constant
    Bit rate                                 : 4 372 Kbps
    Width                                    : 1 280 pixels
    Height                                   : 720 pixels
    Display aspect ratio                     : 16:9
    Frame rate mode                          : Constant
    Frame rate                               : 29.970 fps
    Color space                              : YUV
    Chroma subsampling                       : 4:2:0
    Bit depth                                : 8 bits
    Scan type                                : Progressive
    Bits/(Pixel*Frame)                       : 0.158
    Stream size                              : 1.79 GiB (97%)
    
    Audio
    ID                                       : 2
    Format                                   : AAC
    Format/Info                              : Advanced Audio Codec
    Format profile                           : LC
    Codec ID                                 : 40
    Duration                                 : 58mn 33s
    Bit rate mode                            : Variable
    Bit rate                                 : 125 Kbps
    Maximum bit rate                         : 133 Kbps
    Channel(s)                               : 2 channels
    Channel positions                        : Front: L R
    Sampling rate                            : 48.0 KHz
    Compression mode                         : Lossy
    Stream size                              : 52.5 MiB (3%)
    [/spoiler]

    Mirror: 1

    Uploaded.net
    Code:
    http://uploaded.net/file/vjvkkp2l/WWE.Hell.in.a.Cell.2014.Kickoff.part10.rar
    http://uploaded.net/file/eqd4bm8l/WWE.Hell.in.a.Cell.2014.Kickoff.part09.rar
    http://uploaded.net/file/b7jk02ru/WWE.Hell.in.a.Cell.2014.Kickoff.part08.rar
    http://uploaded.net/file/ugfebrry/WWE.Hell.in.a.Cell.2014.Kickoff.part07.rar
    http://uploaded.net/file/5b794mi5/WWE.Hell.in.a.Cell.2014.Kickoff.part06.rar
    http://uploaded.net/file/xi39ekgi/WWE.Hell.in.a.Cell.2014.Kickoff.part05.rar
    http://uploaded.net/file/k19f4i6b/WWE.Hell.in.a.Cell.2014.Kickoff.part04.rar
    http://uploaded.net/file/ejq7a0gf/WWE.Hell.in.a.Cell.2014.Kickoff.part03.rar
    http://uploaded.net/file/5y8aefjo/WWE.Hell.in.a.Cell.2014.Kickoff.part02.rar
    http://uploaded.net/file/i8qurz6k/WWE.Hell.in.a.Cell.2014.Kickoff.part01.rar
    Mirror: 2

    Share-online.biz
    Code:
    http://www.share-online.biz/dl/1BJ0K3EN1H
    http://www.share-online.biz/dl/HY51K3EN4QU
    http://www.share-online.biz/dl/9PP1K3ENLJ
    http://www.share-online.biz/dl/YU52K3EN23
    http://www.share-online.biz/dl/JII2K3EN7EN
    http://www.share-online.biz/dl/ZX03K3ENF98
    http://www.share-online.biz/dl/E3H3K3ENBCNB
    http://www.share-online.biz/dl/KJY3K3ENPO
    http://www.share-online.biz/dl/VW94K3EN7L
    http://www.share-online.biz/dl/Q0E4K3ENWZ8
    Mirror: 3

    oboom.com
    Code:
    https://www.oboom.com/DSX2QIYP
    https://www.oboom.com/QN0IOF7V
    https://www.oboom.com/5IFE0L4N
    https://www.oboom.com/GUXGLWHA
    https://www.oboom.com/U0U7HGJV
    https://www.oboom.com/UDIEVQZ5
    https://www.oboom.com/3LOZRKD4
    https://www.oboom.com/K1A4KF27
    https://www.oboom.com/PNAURT90
    https://www.oboom.com/2CCOGBOL
    Mirror: 4

    Load.to
    Code:
    http://www.load.to/mVSn5GhlEY/WWE.Hell.in.a.Cell.2014.Kickoff.part01.rar
    http://www.load.to/W9ghV7uotz/WWE.Hell.in.a.Cell.2014.Kickoff.part02.rar
    http://www.load.to/q7E6Ifj95s/WWE.Hell.in.a.Cell.2014.Kickoff.part03.rar
    http://www.load.to/qNwHcrnRNQ/WWE.Hell.in.a.Cell.2014.Kickoff.part04.rar
    http://www.load.to/X6yM22cMvG/WWE.Hell.in.a.Cell.2014.Kickoff.part05.rar
    http://www.load.to/n1Nv9NdggQ/WWE.Hell.in.a.Cell.2014.Kickoff.part06.rar
    http://www.load.to/aBr77m4pMD/WWE.Hell.in.a.Cell.2014.Kickoff.part09.rar
    .

  2. #2
    Hot Member www.desirulez.net
    Join Date
    Jul 2012
    Posts
    612

    Default

    thanks for the kick off

 

 

Posting Permissions

  • You may not post new threads
  • You may not post replies
  • You may not post attachments
  • You may not edit your posts
  •