Results 1 to 1 of 1
  1. #1
    dR Rockers www.desirulez.net
    Join Date
    Jun 2011
    Posts
    2,793

    Thumbs up WWE NXT 2014 10 23 HDTV x264 RKOFAN1990 + 720p

    Follow us on Social Media










    //VIDEO//

    Format : AVC
    Format/Info : Advanced Video Codec
    Format profile : [email protected]
    Format settings, CABAC : Yes
    Format settings, ReFrames : 4 frames
    Codec ID : avc1
    Codec ID/Info : Advanced Video Coding
    Duration : 46mn 0s
    Bit rate : 1 350 Kbps
    Width : 768 pixels
    Height : 432 pixels
    Display aspect ratio : 16:9
    Frame rate mode : Constant
    Frame rate : 25.000 fps

    //AUDIO//

    Format : AAC
    Format/Info : Advanced Audio Codec
    Format profile : LC
    Codec ID : 40
    Duration : 45mn 59s
    Bit rate mode : Variable
    Bit rate : 128 Kbps
    Maximum bit rate : 164 Kbps
    Channel(s) : 2 channels
    Channel positions : Front: L R
    Sampling rate : 48.0 KHz
    Compression mode : Lossy
    Stream size : 42.1 MiB (9%)
    Language : English

    //VIDEO//

    Format : AVC
    Format/Info : Advanced Video Codec
    Format profile : [email protected]
    Format settings, CABAC : Yes
    Format settings, ReFrames : 4 frames
    Codec ID : avc1
    Codec ID/Info : Advanced Video Coding
    Duration : 46mn 0s
    Bit rate : 4 000 Kbps
    Width : 1 280 pixels
    Height : 720 pixels
    Display aspect ratio : 16:9
    Frame rate mode : Constant
    Frame rate : 25.000 fps

    //AUDIO//

    Format : AAC
    Format/Info : Advanced Audio Codec
    Format profile : LC
    Codec ID : 40
    Duration : 45mn 59s
    Bit rate mode : Variable
    Bit rate : 192 Kbps
    Maximum bit rate : 247 Kbps
    Channel(s) : 2 channels
    Channel positions : Front: L R
    Sampling rate : 48.0 KHz
    Compression mode : Lossy
    Stream size : 63.2 MiB (5%)
    Language : English



    DOWNLOAD LINKS

    Code:
    http://uploaded.net/file/zjrgop89/WWE.NXT.2014.10.26.HDTV.720p.x264-RKOFAN1990.mp4
    http://uploaded.net/file/vssa41w4/WWE.NXT.2014.10.26.HDTV.x264-RKOFAN1990.mp4
    
    http://turbobit.net/5rskqqgkgjs9/WWE.NXT.2014.10.26.HDTV.x264-RKOFAN1990.mp4.html
    http://turbobit.net/odkgfz8xbs18/WWE.NXT.2014.10.26.HDTV.720p.x264-RKOFAN1990.mp4.html
    
    http://www.hitfile.net/2Mie/WWE.NXT.2014.10.26.HDTV.x264-RKOFAN1990.mp4.html
    http://www.hitfile.net/Lij9/WWE.NXT.2014.10.26.HDTV.720p.x264-RKOFAN1990.mp4.html

 

 

Posting Permissions

  • You may not post new threads
  • You may not post replies
  • You may not post attachments
  • You may not edit your posts
  •