Results 1 to 2 of 2
  1. #1
    Super Member www.desirulez.net
    Join Date
    Feb 2014
    Location
    iran
    Posts
    180

    Thumbs up WWE.Raw.Pre.Show.1st.Sep.2014.720p.WEB - DL.4500k.x264

    Follow us on Social Media





    WWE.Raw.Pre.Show.1st.Sep.2014.720p.WEB - DL.4500k.x264




    WWE.Raw.Pre.Show.720p.WEB-DL.4500k.x264-DN.mp4
    Format : MPEG-4
    Format profile : Base Media
    Codec ID : isom
    File size : 955 MiB
    Duration : 29mn 36s
    Overall bit rate mode : Constant
    Overall bit rate : 4 508 Kbps
    Writing application : Lavf55.32.101

    Video
    ID : 1
    Format : AVC
    Format/Info : Advanced Video Codec
    Format profile : [email protected]
    Format settings, CABAC : Yes
    Format settings, ReFrames : 4 frames
    Codec ID : avc1
    Codec ID/Info : Advanced Video Coding
    Duration : 29mn 36s
    Bit rate mode : Constant
    Bit rate : 4 372 Kbps
    Width : 1 280 pixels
    Height : 720 pixels
    Display aspect ratio : 16:9
    Frame rate mode : Constant
    Frame rate : 29.970 fps
    Color space : YUV
    Chroma subsampling : 4:2:0
    Bit depth : 8 bits
    Scan type : Progressive
    Bits/(Pixel*Frame) : 0.158
    Stream size : 926 MiB (97%)

    Audio
    ID : 2
    Format : AAC
    Format/Info : Advanced Audio Codec
    Format profile : LC
    Codec ID : 40
    Duration : 29mn 36s
    Bit rate mode : Constant
    Bit rate : 125 Kbps
    Channel(s) : 2 channels
    Channel positions : Front: L R
    Sampling rate : 48.0 KHz
    Compression mode : Lossy
    Stream size : 26.6 MiB (3%)
    Code :


  2. #2
    Super Member www.desirulez.net
    Join Date
    Feb 2014
    Location
    iran
    Posts
    180

    Default

    screen shot :


 

 

Posting Permissions

  • You may not post new threads
  • You may not post replies
  • You may not post attachments
  • You may not edit your posts
  •