Results 1 to 2 of 2
  1. #1

    Default WWE.Raw.Pre.Show.1st.Sep.2014.720p.WEB - DL.4500k.x264 - DN

    Follow us on Social Media





    .

    WWE.Raw.Pre.Show.720p.WEB-DL.4500k.x264-DN



    Title: WWE Raw Pre Show
    Genre: Wrestling
    Language/s: English
    Hoster: Uploaded.net, Share-online.biz, oboom.com, Hugefiles.net
    Size: 954,84 MB
    Parts: 1
    Password: NeXt

    WWE.Raw.Pre.Show.720p.WEB-DL.4500k.x264-DN.mp4
    Format : MPEG-4
    Format profile : Base Media
    Codec ID : isom
    File size : 955 MiB
    Duration : 29mn 36s
    Overall bit rate mode : Constant
    Overall bit rate : 4 508 Kbps
    Writing application : Lavf55.32.101

    Video
    ID : 1
    Format : AVC
    Format/Info : Advanced Video Codec
    Format profile : [email protected]
    Format settings, CABAC : Yes
    Format settings, ReFrames : 4 frames
    Codec ID : avc1
    Codec ID/Info : Advanced Video Coding
    Duration : 29mn 36s
    Bit rate mode : Constant
    Bit rate : 4 372 Kbps
    Width : 1 280 pixels
    Height : 720 pixels
    Display aspect ratio : 16:9
    Frame rate mode : Constant
    Frame rate : 29.970 fps
    Color space : YUV
    Chroma subsampling : 4:2:0
    Bit depth : 8 bits
    Scan type : Progressive
    Bits/(Pixel*Frame) : 0.158
    Stream size : 926 MiB (97%)

    Audio
    ID : 2
    Format : AAC
    Format/Info : Advanced Audio Codec
    Format profile : LC
    Codec ID : 40
    Duration : 29mn 36s
    Bit rate mode : Constant
    Bit rate : 125 Kbps
    Channel(s) : 2 channels
    Channel positions : Front: L R
    Sampling rate : 48.0 KHz
    Compression mode : Lossy
    Stream size : 26.6 MiB (3%)

    Mirror: 1

    Uploaded.net
    Code:
    http://ul.to/sdmqvwiz
    Mirror: 2

    Share-online.biz
    Code:
    http://www.share-online.biz/dl/RML999BNUK
    Mirror: 3

    oboom.com
    Code:
    https://www.oboom.com/XTDN3MQ0/WWE.Raw.Pre.Show.720p.WEB-DL.4500k.x264-DN.mp4
    Mirror: 4

    Hugefiles.net
    Code:
    http://hugefiles.net/rwx6tvw4ruj2
    .

  2. #2
    Hot Member www.desirulez.net
    Join Date
    Jul 2012
    Posts
    613

    Default

    thanks for this one

 

 

Posting Permissions

  • You may not post new threads
  • You may not post replies
  • You may not post attachments
  • You may not edit your posts
  •