Results 1 to 1 of 1
  1. #1
    dR Rockers www.desirulez.net
    Join Date
    Jun 2011
    Posts
    2,793

    Thumbs up WWE Cena vs Brock Lesnar Postshow HDTV 2014-08-11 720p AVCHD-SC-SDH

    Follow us on Social Media









    Format : MPEG-4
    Format profile : Base Media
    Codec ID : isom
    File size : 910 MiB
    Duration : 27mn 40s
    Overall bit rate mode : Variable
    Overall bit rate : 4 598 Kbps
    Writing application : Lavf52.64.2

    Video
    ID : 1
    Format : AVC
    Format/Info : Advanced Video Codec
    Format profile : [email protected]
    Format settings, CABAC : Yes
    Format settings, ReFrames : 2 frames
    Format settings, GOP : M=3, N=9
    Codec ID : avc1
    Codec ID/Info : Advanced Video Coding
    Duration : 27mn 40s
    Bit rate mode : Variable
    Bit rate : 4 274 Kbps
    Maximum bit rate : 8 960 Kbps
    Width : 1 280 pixels
    Height : 720 pixels
    Display aspect ratio : 16:9
    Frame rate mode : Variable
    Frame rate : 29.970 fps
    Minimum frame rate : 29.970 fps
    Maximum frame rate : 30.000 fps
    Color space : YUV
    Chroma subsampling : 4:2:0
    Bit depth : 8 bits
    Scan type : Progressive
    Bits/(Pixel*Frame) : 0.155
    Stream size : 846 MiB (93%)
    Color primaries : BT.709
    Transfer characteristics : BT.709
    Matrix coefficients : BT.709

    Audio
    ID : 2
    Format : AAC
    Format/Info : Advanced Audio Codec
    Format profile : LC
    Codec ID : 40
    Duration : 27mn 40s
    Duration_LastFrame : -21ms
    Bit rate mode : Variable
    Bit rate : 317 Kbps
    Channel(s) : 2 channels
    Channel positions : Front: L R
    Sampling rate : 48.0 KHz
    Compression mode : Lossy
    Stream size : 62.8 MiB (7%)
    Language : English

    DOWNLOAD LINKS
    Code:
    http://xerver.co/x7beoeztjfk8/WWE.Monday.Night.Raw.HDTV.Cena.vs.Brock.Postshow.2014-08-11.720p.AVCHD-SC-SDH.mp4
    
    http://uploaded.net/file/cw9b4uuf/WWE.Monday.Night.Raw.HDTV.Cena.vs.Brock.Postshow.2014-08-11.720p.AVCHD-SC-SDH.mp4
    
    http://new.turbobit.net/xsqu370sj99f/WWE.Monday.Night.Raw.HDTV.Cena.vs.Brock.Postshow.2014-08-11.720p.AVCHD-SC-SDH.mp4.html
    
    http://www.hitfile.net/NI7G/WWE.Monday.Night.Raw.HDTV.Cena.vs.Brock.Postshow.2014-08-11.720p.AVCHD-SC-SDH.mp4.html

 

 

Posting Permissions

  • You may not post new threads
  • You may not post replies
  • You may not post attachments
  • You may not edit your posts
  •