Results 1 to 1 of 1
  1. #1

    Default WWE Main Event 2014.06.10 HDTV x264-RKOFAN1990

    Follow us on Social Media





    WWE Main Event 2014.06.10 HDTV x264-RKOFAN1990



    Video
    ID : 1
    Format : AVC
    Format/Info : Advanced Video Codec
    Format profile : [email protected]
    Format settings, CABAC : No
    Format settings, ReFrames : 1 frame
    Format settings, GOP : M=1, N=80
    Codec ID : avc1
    Codec ID/Info : Advanced Video Coding
    Duration : 54mn 25s
    Bit rate mode : Variable
    Bit rate : 1 354 Kbps
    Maximum bit rate : 2 700 Kbps
    Width : 720 pixels
    Height : 400 pixels
    Display aspect ratio : 16:9
    Frame rate mode : Constant
    Frame rate : 25.000 fps
    Color space : YUV
    Chroma subsampling : 4:2:0
    Bit depth : 8 bits
    Scan type : Progressive
    Bits/(Pixel*Frame) : 0.188
    Stream size : 527 MiB (91%)
    Language : English
    Encoded date : UTC 2014-06-11 01:16:56
    Tagged date : UTC 2014-06-11 01:16:56

    Audio
    ID : 2
    Format : AAC
    Format/Info : Advanced Audio Codec
    Format profile : LC
    Codec ID : 40
    Duration : 54mn 25s
    Bit rate mode : Constant
    Bit rate : 125 Kbps
    Channel(s) : 2 channels
    Channel positions : Front: L R
    Sampling rate : 48.0 KHz
    Compression mode : Lossy
    Stream size : 48.8 MiB (8%)
    Language : English
    Encoded date : UTC 2014-06-11 01:16:56
    Tagged date : UTC 2014-06-11 01:16:56


    Become Premium for maximum speed, resuming ability and no waiting

    Code:
    ====== RAPIDGATOR ======
    http://rapidgator.net/file/3fc260084a764f7e3b3f294b535e78f5/WWE.Main.Event.2014.06.10.HDTV.x264-RKOFAN1990.MP4.html
    
    ====== UPLOADED>TO ======
    http://ul.to/p3t1ea60/WWE.Main.Event.2014.06.10.HDTV.x264-RKOFAN1990.MP4
    
    ====== Fileparadox ======
    http://fileparadox.in/4d6c88c5kzmk/WWE.Main.Event.2014.06.10.HDTV.x264-RKOFAN1990.MP4
    
    ====== Turbobit ======
    http://turbobit.net/5jvmj1whk95o/WWE.Main.Event.2014.06.10.HDTV.x264-RKOFAN1990.MP4.html
    
    ====== Fileom ======
    http://fileom.com/fv4csigobr36/WWE.Main.Event.2014.06.10.HDTV.x264-RKOFAN1990.MP4.html





 

 

Posting Permissions

  • You may not post new threads
  • You may not post replies
  • You may not post attachments
  • You may not edit your posts
  •