Results 1 to 1 of 1
  1. #1
    dR Rockers www.desirulez.net
    Join Date
    Jun 2011
    Posts
    2,793

    Thumbs up WWE NXT Take Over 2014 720p WEBRip x264 StVnChNc

    Follow us on Social Media










    Format : MPEG-TS
    File size : 5.86 GiB
    Duration : 1h 54mn
    Overall bit rate mode : Variable
    Overall bit rate : 7 339 Kbps

    Video
    ID : 100 (0x64)
    Menu ID : 2 (0x2)
    Format : AVC
    Format/Info : Advanced Video Codec
    Format profile : [email protected]
    Format settings, CABAC : Yes
    Format settings, ReFrames : 2 frames
    Format settings, GOP : M=3, N=15
    Codec ID : 27
    Duration : 1h 54mn
    Bit rate mode : Variable
    Bit rate : 6 753 Kbps
    Maximum bit rate : 14.0 Mbps
    Width : 1 280 pixels
    Height : 720 pixels
    Display aspect ratio : 16:9
    Frame rate : 59.940 fps
    Color space : YUV
    Chroma subsampling : 4:2:0
    Bit depth : 8 bits
    Scan type : Progressive
    Bits/(Pixel*Frame) : 0.122
    Stream size : 5.39 GiB (92%)
    Color primaries : BT.709
    Transfer characteristics : BT.709
    Matrix coefficients : BT.709

    Audio
    ID : 101 (0x65)
    Menu ID : 2 (0x2)
    Format : AAC
    Format/Info : Advanced Audio Codec
    Format version : Version 4
    Format profile : LC
    Muxing mode : ADTS
    Codec ID : 15
    Duration : 1h 54mn
    Bit rate mode : Variable
    Bit rate : 221 Kbps
    Channel(s) : 2 channels
    Channel positions : Front: L R
    Sampling rate : 48.0 KHz
    Compression mode : Lossy
    Delay relative to video : -20ms
    Stream size : 180 MiB (3%)
    Language : English


    DOWNLOAD LINKS

    Code:
    http://www.arabloads.net/bey1jqpj5hgl/WWE.NXT.Take.Over.2014.720p.WEBRip.x264-StVnChNc.ts.html
    or
    http://www.arabloads.net/b3xnrxvoizze/WWE.NXT.Take.Over.2014.720p.WEBRip.x264-StVnChNc.ts.part1.rar.html
    http://www.arabloads.net/tz9p4r9wm0um/WWE.NXT.Take.Over.2014.720p.WEBRip.x264-StVnChNc.ts.part2.rar.html
    http://www.arabloads.net/76tsvsa2n9tm/WWE.NXT.Take.Over.2014.720p.WEBRip.x264-StVnChNc.ts.part3.rar.html
    http://www.arabloads.net/53ljyyzcb2hp/WWE.NXT.Take.Over.2014.720p.WEBRip.x264-StVnChNc.ts.part4.rar.html
    http://www.arabloads.net/on9xx9m9x7pi/WWE.NXT.Take.Over.2014.720p.WEBRip.x264-StVnChNc.ts.part5.rar.html
    http://www.arabloads.net/w2004yjzfjy5/WWE.NXT.Take.Over.2014.720p.WEBRip.x264-StVnChNc.ts.part6.rar.html
    
    http://uploaded.net/file/vdqboshx/WWE.NXT.Take.Over.2014.720p.WEBRip.x264-StVnChNc.ts.part4.rar
    http://uploaded.net/file/2jxyqvk4/WWE.NXT.Take.Over.2014.720p.WEBRip.x264-StVnChNc.ts.part2.rar
    http://uploaded.net/file/k6b9d9zk/WWE.NXT.Take.Over.2014.720p.WEBRip.x264-StVnChNc.ts.part3.rar
    http://uploaded.net/file/0fw4xjbq/WWE.NXT.Take.Over.2014.720p.WEBRip.x264-StVnChNc.ts.part1.rar
    http://uploaded.net/file/58qkhjy8/WWE.NXT.Take.Over.2014.720p.WEBRip.x264-StVnChNc.ts.part6.rar
    http://uploaded.net/file/g9dfton1/WWE.NXT.Take.Over.2014.720p.WEBRip.x264-StVnChNc.ts.part5.rar
    
    http://turbobit.net/tcnaauyjna20/WWE.NXT.Take.Over.2014.720p.WEBRip.x264-StVnChNc.ts.html
    or
    http://turbobit.net/kcpwjefo1afm/WWE.NXT.Take.Over.2014.720p.WEBRip.x264-StVnChNc.ts.part1.rar.html
    http://turbobit.net/jqraqvyr66to/WWE.NXT.Take.Over.2014.720p.WEBRip.x264-StVnChNc.ts.part2.rar.html
    http://turbobit.net/sul71366k4fk/WWE.NXT.Take.Over.2014.720p.WEBRip.x264-StVnChNc.ts.part3.rar.html
    http://turbobit.net/756dbx4e0wdb/WWE.NXT.Take.Over.2014.720p.WEBRip.x264-StVnChNc.ts.part4.rar.html
    http://turbobit.net/vwku88qwlmzs/WWE.NXT.Take.Over.2014.720p.WEBRip.x264-StVnChNc.ts.part5.rar.html
    http://turbobit.net/up5ehcilzehp/WWE.NXT.Take.Over.2014.720p.WEBRip.x264-StVnChNc.ts.part6.rar.html
    
    http://www.hitfile.net/OxeI/WWE.NXT.Take.Over.2014.720p.WEBRip.x264-StVnChNc.ts.html
    or
    http://www.hitfile.net/LwqO/WWE.NXT.Take.Over.2014.720p.WEBRip.x264-StVnChNc.ts.part1.rar.html
    http://www.hitfile.net/TWDL/WWE.NXT.Take.Over.2014.720p.WEBRip.x264-StVnChNc.ts.part2.rar.html
    http://www.hitfile.net/RxLy/WWE.NXT.Take.Over.2014.720p.WEBRip.x264-StVnChNc.ts.part3.rar.html
    http://www.hitfile.net/8Kx9/WWE.NXT.Take.Over.2014.720p.WEBRip.x264-StVnChNc.ts.part4.rar.html
    http://www.hitfile.net/aMHT/WWE.NXT.Take.Over.2014.720p.WEBRip.x264-StVnChNc.ts.part5.rar.html
    http://www.hitfile.net/nNNv/WWE.NXT.Take.Over.2014.720p.WEBRip.x264-StVnChNc.ts.part6.rar.html


 

 

Posting Permissions

  • You may not post new threads
  • You may not post replies
  • You may not post attachments
  • You may not edit your posts
  •