Results 1 to 1 of 1
  1. #1
    dR Rockers www.desirulez.net
    Join Date
    Jun 2011
    Posts
    2,793

    Thumbs up WWE.Monday.Night.RAW.2014-05-05.1080i.HDTV.MPA2.0.8-bit.420.mpeg2[email protected]

    Follow us on Social Media








    Format : MPEG-TS
    File size : 27.7 GiB
    Duration : 3h 18mn
    Overall bit rate mode : Variable
    Overall bit rate : 19.9 Mbps

    Video
    ID : 3010 (0xBC2)
    Menu ID : 30001 (0x7531)
    Format : MPEG Video
    Format version : Version 2
    Format profile : [email protected]
    Format settings, BVOP : Yes
    Format settings, Matrix : Default
    Codec ID : 2
    Duration : 3h 18mn
    Bit rate mode : Variable
    Bit rate : 18.8 Mbps
    Maximum bit rate : 19.7 Mbps
    Width : 1 920 pixels
    Height : 1 080 pixels
    Display aspect ratio : 16:9
    Active Format Description : Full frame 16:9 image
    Frame rate : 25.000 fps
    Color space : YUV
    Chroma subsampling : 4:2:0
    Bit depth : 8 bits
    Scan type : Interlaced
    Scan order : Top Field First
    Compression mode : Lossy
    Bits/(Pixel*Frame) : 0.362
    Time code of first frame : 00:00:00:00
    Time code source : Group of pictures header
    Stream size : 26.1 GiB (94%)

    Audio
    ID : 3011 (0xBC3)
    Menu ID : 30001 (0x7531)
    Format : MPEG Audio
    Format version : Version 1
    Format profile : Layer 2
    Codec ID : 4
    Duration : 3h 18mn
    Bit rate mode : Constant
    Bit rate : 192 Kbps
    Channel(s) : 2 channels
    Sampling rate : 48.0 KHz
    Compression mode : Lossy
    Delay relative to video : -108ms
    Stream size : 273 MiB (1%)



    DOWNLOAD LINKS

    Code:
    http://uploaded.net/file/l5h3dh2t/WWE.Monday.Night.RAW.2014-05-06.1080[email protected]
    http://uploaded.net/file/02n08kx8/WWE.Monday.Night.RAW.2014-05-06.1080[email protected]
    http://uploaded.net/file/uxajk7pg/WWE.Monday.Night.RAW.2014-05-06.1080[email protected]
    http://uploaded.net/file/dj5icvhq/WWE.Monday.Night.RAW.2014-05-06.1080[email protected]
    http://uploaded.net/file/5kzegmib/WWE.Monday.Night.RAW.2014-05-06.1080[email protected]
    http://uploaded.net/file/1onklk3b/WWE.Monday.Night.RAW.2014-05-06.1080[email protected]
    http://uploaded.net/file/6q8mjd4r/WWE.Monday.Night.RAW.2014-05-06.1080[email protected]
    http://uploaded.net/file/oq63ufrg/WWE.Monday.Night.RAW.2014-05-06.1080[email protected]
    http://uploaded.net/file/pjoaz4ex/WWE.Monday.Night.RAW.2014-05-06.1080[email protected]
    http://uploaded.net/file/g9eg7yxj/WWE.Monday.Night.RAW.2014-05-06.1080[email protected]
    Code:
    http://turbobit.net/z6pmipdkcwyf/WWE.Monday.Night.RAW.2014-05-06.1080i.[email protected]
    http://turbobit.net/tpozkpv5zil3/WWE.Monday.Night.RAW.2014-05-06.1080i.[email protected]
    http://turbobit.net/xvuwujg3muqi/WWE.Monday.Night.RAW.2014-05-06.1080i.[email protected]
    http://turbobit.net/70ftpv3rum18/WWE.Monday.Night.RAW.2014-05-06.1080i.[email protected]
    http://turbobit.net/ha4ijz553h67/WWE.Monday.Night.RAW.2014-05-06.1080i.[email protected]
    http://turbobit.net/4czh6q69xrhy/WWE.Monday.Night.RAW.2014-05-06.1080i.[email protected]
    http://turbobit.net/a6i39eoanb2t/WWE.Monday.Night.RAW.2014-05-06.1080i.[email protected]
    http://turbobit.net/z1q2z9xxwxjh/WWE.Monday.Night.RAW.2014-05-06.1080i.[email protected]
    http://turbobit.net/0u5c744cr6v5/WWE.Monday.Night.RAW.2014-05-06.1080i.[email protected]
    http://turbobit.net/x4k7g4seyqmc/WWE.Monday.Night.RAW.2014-05-06.1080i.[email protected]
    Code:
    http://www.hitfile.net/bwNT/WWE.Monday.Night.RAW.2014-05-06.1080i.HDTV.[email protected]
    http://www.hitfile.net/DBQU/WWE.Monday.Night.RAW.2014-05-06.1080i.HDTV.[email protected]
    http://www.hitfile.net/TbzJ/WWE.Monday.Night.RAW.2014-05-06.1080i.HDTV.[email protected]
    http://www.hitfile.net/d59P/WWE.Monday.Night.RAW.2014-05-06.1080i.HDTV.[email protected]
    http://www.hitfile.net/0GGu/WWE.Monday.Night.RAW.2014-05-06.1080i.HDTV.[email protected]
    http://www.hitfile.net/Nlyk/WWE.Monday.Night.RAW.2014-05-06.1080i.HDTV.[email protected]
    http://www.hitfile.net/TJ8j/WWE.Monday.Night.RAW.2014-05-06.1080i.HDTV.[email protected]
    http://www.hitfile.net/ffGI/WWE.Monday.Night.RAW.2014-05-06.1080i.HDTV.[email protected]
    http://www.hitfile.net/dOZt/WWE.Monday.Night.RAW.2014-05-06.1080i.HDTV.[email protected]
    http://www.hitfile.net/slFh/WWE.Monday.Night.RAW.2014-05-06.1080i.HDTV.[email protected]



 

 

Posting Permissions

  • You may not post new threads
  • You may not post replies
  • You may not post attachments
  • You may not edit your posts
  •