Results 1 to 1 of 1
  1. #1
    dR Rockers www.desirulez.net
    Join Date
    Jun 2011
    Posts
    2,793

    Thumbs up WWE Extreme Rules 2014 720p WEB-DL x264-StVnChNc 8.7gb

    Follow us on Social Media









    Format : MPEG-TS
    File size : 8.71 GiB
    Duration : 2h 44mn
    Overall bit rate mode : Variable
    Overall bit rate : 7 602 Kbps

    Video
    ID : 100 (0x64)
    Menu ID : 2 (0x2)
    Format : AVC
    Format/Info : Advanced Video Codec
    Format profile : [email protected]
    Format settings, CABAC : Yes
    Format settings, ReFrames : 2 frames
    Format settings, GOP : M=3, N=15
    Codec ID : 27
    Duration : 2h 44mn
    Bit rate mode : Variable
    Bit rate : 7 004 Kbps
    Maximum bit rate : 14.0 Mbps
    Width : 1 280 pixels
    Height : 720 pixels
    Display aspect ratio : 16:9
    Frame rate : 59.940 fps
    Color space : YUV
    Chroma subsampling : 4:2:0
    Bit depth : 8 bits
    Scan type : Progressive
    Bits/(Pixel*Frame) : 0.127
    Stream size : 8.03 GiB (92%)
    Color primaries : BT.709
    Transfer characteristics : BT.709
    Matrix coefficients : BT.709

    Audio
    ID : 101 (0x65)
    Menu ID : 2 (0x2)
    Format : AAC
    Format/Info : Advanced Audio Codec
    Format version : Version 4
    Format profile : LC
    Muxing mode : ADTS
    Codec ID : 15
    Duration : 2h 44mn
    Bit rate mode : Variable
    Bit rate : 220 Kbps
    Channel(s) : 2 channels
    Channel positions : Front: L R
    Sampling rate : 48.0 KHz
    Compression mode : Lossy
    Delay relative to video : -320ms
    Stream size : 258 MiB (3%)
    Language : English



    DOWNLOAD LINKS

    Code:
    http://uploaded.net/file/f0qrc4b5/WWE.Extreme.Rules.2014.720p.WEB.DL.x264-StVnChNc.part1.rar
    http://uploaded.net/file/y1516r6y/WWE.Extreme.Rules.2014.720p.WEB.DL.x264-StVnChNc.part2.rar
    http://uploaded.net/file/vruovkv6/WWE.Extreme.Rules.2014.720p.WEB.DL.x264-StVnChNc.part3.rar
    
    http://turbobit.net/f6it8u5pbckb/WWE.Extreme.Rules.2014.720p.WEB.DL.x264-StVnChNc.part1.rar.html
    http://turbobit.net/e8a00dr387l0/WWE.Extreme.Rules.2014.720p.WEB.DL.x264-StVnChNc.part2.rar.html
    http://turbobit.net/7e3oyvf9vyb0/WWE.Extreme.Rules.2014.720p.WEB.DL.x264-StVnChNc.part3.rar.html
    
    http://www.hitfile.net/eAQH/WWE.Extreme.Rules.2014.720p.WEB.DL.x264-StVnChNc.part1.rar.html
    http://www.hitfile.net/iHHw/WWE.Extreme.Rules.2014.720p.WEB.DL.x264-StVnChNc.part2.rar.html
    http://www.hitfile.net/CFUn/WWE.Extreme.Rules.2014.720p.WEB.DL.x264-StVnChNc.part3.rar.html


 

 

Posting Permissions

  • You may not post new threads
  • You may not post replies
  • You may not post attachments
  • You may not edit your posts
  •