Results 1 to 1 of 1
  1. #1
    dR Rockers www.desirulez.net
    Join Date
    Jun 2011
    Posts
    2,793

    Thumbs up WWE.Friday.Night.SmackDown.2014-04-18.XVID

    Follow us on Social Media










    Format : AVI
    Format/Info : Audio Video Interleave
    Format profile : OpenDML
    File size : 1.46 GiB
    Duration : 1h 35mn
    Overall bit rate : 2 186 Kbps
    Writing application : Lavf55.33.100

    Video
    ID : 0
    Format : MPEG-4 Visual
    Format profile : Advanced [email protected]
    Format settings, BVOP : No
    Format settings, QPel : No
    Format settings, GMC : No warppoints
    Format settings, Matrix : Default (H.263)
    Codec ID : XVID
    Codec ID/Hint : XviD
    Duration : 1h 35mn
    Bit rate : 1 790 Kbps
    Width : 720 pixels
    Height : 400 pixels
    Display aspect ratio : 16:9
    Frame rate : 25.000 fps
    Color space : YUV
    Chroma subsampling : 4:2:0
    Bit depth : 8 bits
    Scan type : Progressive
    Compression mode : Lossy
    Bits/(Pixel*Frame) : 0.249
    Stream size : 1.20 GiB (82%)
    Writing library : XviD 64

    Audio
    ID : 1
    Format : AC-3
    Format/Info : Audio Coding 3
    Mode extension : CM (complete main)
    Format settings, Endianness : Big
    Codec ID : 2000
    Duration : 1h 35mn
    Bit rate mode : Constant
    Bit rate : 384 Kbps
    Channel(s) : 2 channels
    Channel positions : Front: L R
    Sampling rate : 48.0 KHz
    Bit depth : 16 bits
    Compression mode : Lossy
    Stream size : 263 MiB (18%)
    Alignment : Aligned on interleaves
    Interleave, duration : 32 ms (0.80 video frame)


    DOWNLOAD LINKS

    Code:
    http://www.arabloads.net/i9v5wa68dlk1/WWE.Friday.Night.SmackDown.2014.04.18.XviD.avi.html
    
    http://uploaded.net/file/3pr939ty/WWE.Friday.Night.SmackDown.2014.04.18.XviD.avi
    
    http://turbobit.net/vq8iun69hr9y/WWE.Friday.Night.SmackDown.2014.04.18.XviD.avi.html
    
    http://www.hitfile.net/D7tm/WWE.Friday.Night.SmackDown.2014.04.18.XviD.avi.html

    Last edited by lovely1629; 04-18-2014 at 08:37 PM.

 

 

Posting Permissions

  • You may not post new threads
  • You may not post replies
  • You may not post attachments
  • You may not edit your posts
  •