Results 1 to 1 of 1
  1. #1
    dR Rockers www.desirulez.net
    Join Date
    Jun 2011
    Posts
    2,793

    Thumbs up WWE NXT 2014-04-17 XVID 620Mb

    Follow us on Social Media










    Format : AVI
    Format/Info : Audio Video Interleave
    File size : 623 MiB
    Duration : 46mn 2s
    Overall bit rate : 1 891 Kbps
    Writing application : Lavf55.33.100

    Video
    ID : 0
    Format : MPEG-4 Visual
    Format profile : Advanced [email protected]
    Format settings, BVOP : No
    Format settings, QPel : No
    Format settings, GMC : No warppoints
    Format settings, Matrix : Default (H.263)
    Codec ID : XVID
    Codec ID/Hint : XviD
    Duration : 46mn 2s
    Bit rate : 1 497 Kbps
    Width : 720 pixels
    Height : 400 pixels
    Display aspect ratio : 16:9
    Frame rate : 25.000 fps
    Color space : YUV
    Chroma subsampling : 4:2:0
    Bit depth : 8 bits
    Scan type : Progressive
    Compression mode : Lossy
    Bits/(Pixel*Frame) : 0.208
    Stream size : 493 MiB (79%)
    Writing library : XviD 64

    Audio
    ID : 1
    Format : AC-3
    Format/Info : Audio Coding 3
    Mode extension : CM (complete main)
    Format settings, Endianness : Big
    Codec ID : 2000
    Duration : 46mn 1s
    Bit rate mode : Constant
    Bit rate : 384 Kbps
    Channel(s) : 2 channels
    Channel positions : Front: L R
    Sampling rate : 48.0 KHz
    Bit depth : 16 bits
    Compression mode : Lossy
    Stream size : 126 MiB (20%)
    Alignment : Aligned on interleaves
    Interleave, duration : 32 ms (0.80 video frame)



    DOWNLOAD LINKS

    Code:
    http://www.arabloads.net/6sqat3rboh87/WWE.NXT.2014-04-17.XVID.avi.html
    
    http://uploaded.net/file/kuyyfdby/WWE.NXT.2014-04-17.XVID.avi
    
    http://turbobit.net/q9ecz8qok2fg/WWE.NXT.2014-04-17.XVID.avi.html
    
    http://www.hitfile.net/KQf4/WWE.NXT.2014-04-17.XVID.avi.html
    Last edited by lovely1629; 04-17-2014 at 08:55 PM.

 

 

Posting Permissions

  • You may not post new threads
  • You may not post replies
  • You may not post attachments
  • You may not edit your posts
  •