Results 1 to 1 of 1
  1. #1
    dR Rockers www.desirulez.net
    Join Date
    Jun 2011
    Posts
    2,793

    Thumbs up WWE Wrestlemania XXX DSR XviD XWT

    Follow us on Social Media








    Format : AVI
    Format/Info : Audio Video Interleave
    File size : 2200 MiB
    Overall bit rate : 1 326 Kbps
    Writing library : MPlayer

    Video
    ID : 0
    Format : MPEG-4 Visual
    Format profile : Advanced [email protected]
    Format settings, BVOP : 2
    Format settings, QPel : No
    Format settings, GMC : No warppoints
    Format settings, Matrix : Default (H.263)
    Codec ID : XVID
    Codec ID/Hint : XviD
    Bit rate : 1 136 Kbps
    Width : 640 pixels
    Height : 368 pixels
    Display aspect ratio : 1.739
    Frame rate : 25.000 fps
    Color space : YUV
    Chroma subsampling : 4:2:0
    Bit depth : 8 bits
    Scan type : Progressive
    Compression mode : Lossy
    Bits/(Pixel*Frame) : 0.193
    Stream size : 840 MiB (86%)
    Writing library : XviD 1.1.2 (UTC 2006-11-01)

    Audio
    ID : 1
    Format : MPEG Audio
    Format version : Version 1
    Format profile : Layer 3
    Mode : Joint stereo
    Mode extension : MS Stereo
    Codec ID : 55
    Codec ID/Hint : MP3
    Bit rate mode : Constant
    Bit rate : 128 Kbps
    Channel(s) : 2 channels
    Sampling rate : 44.1 KHz
    Compression mode : Lossy
    Delay relative to video : 40ms
    Stream size : 94.6 MiB (10%)
    Alignment : Aligned on interleaves
    SINGLE LINKS

    Code:
    http://uploaded.net/file/bhgv4bs1/Single_Part.rar
    or
    http://uploaded.net/file/h9bdeuc9/XWT.Version.Part-2.avi
    http://uploaded.net/file/h77v2uk6/XWT.Version.Part-1.avi
    http://uploaded.net/file/62a5kdsy/XWT.Version.Part-3.avi
    
    http://turbobit.net/o209uishglp5/Single_Part.rar.html
    or
    http://turbobit.net/wd4lvrsw5fp9/XWT.Version.Part-1.avi.html
    http://turbobit.net/g3v94zdblccr/XWT.Version.Part-2.avi.html
    http://turbobit.net/v18qqd6epgnw/XWT.Version.Part-3.avi.html
    
    http://www.hitfile.net/vH7u/Single_Part.rar.html
    or
    http://www.hitfile.net/C2rH/XWT.Version.Part-1.avi.html
    http://www.hitfile.net/NyRq/XWT.Version.Part-2.avi.html
    http://www.hitfile.net/oV46/XWT.Version.Part-3.avi.html


 

 

Posting Permissions

  • You may not post new threads
  • You may not post replies
  • You may not post attachments
  • You may not edit your posts
  •