Results 1 to 1 of 1
  1. #1
    dR Rockers www.desirulez.net
    Join Date
    Jun 2011
    Posts
    2,793

    Thumbs up WWE Wrestlemania XXX WWENetwork WEB DL H264 XWT

    Follow us on Social Media







    General
    Format : MPEG-4
    Format profile : Base Media
    Codec ID : isom
    File size : 2.97 GiB
    Duration : 3h 55mn
    Overall bit rate mode : Variable
    Overall bit rate : 1 807 Kbps
    Writing application : Lavf54.59.106

    Video
    ID : 1
    Format : AVC
    Format/Info : Advanced Video Codec
    Format profile : [email protected]
    Format settings, CABAC : Yes
    Format settings, ReFrames : 4 frames
    Codec ID : avc1
    Codec ID/Info : Advanced Video Coding
    Duration : 3h 55mn
    Bit rate mode : Constant
    Bit rate : 1 704 Kbps
    Width : 896 pixels
    Height : 504 pixels
    Display aspect ratio : 16:9
    Frame rate mode : Variable
    Frame rate : 29.970 fps
    Minimum frame rate : 14.985 fps
    Maximum frame rate : 29.970 fps
    Color space : YUV
    Chroma subsampling : 4:2:0
    Bit depth : 8 bits
    Scan type : Progressive
    Bits/(Pixel*Frame) : 0.126
    Stream size : 2.80 GiB (94%)

    Audio
    ID : 2
    Format : AAC
    Format/Info : Advanced Audio Codec
    Format profile : LC
    Codec ID : 40
    Duration : 3h 55mn
    Bit rate mode : Variable
    Bit rate : 93.5 Kbps
    Maximum bit rate : 95.2 Kbps
    Channel(s) : 2 channels
    Channel positions : Front: L R
    Sampling rate : 48.0 KHz
    Compression mode : Lossy
    Stream size : 157 MiB (5%)





    SINGLE LINKS

    Code:
    http://uploaded.net/file/1jgaiafa/Wrstlemnia.WEB-DL.H264-XWT.mp4
    
    http://turbobit.net/1qlac3xdxe0w/Wrstlemnia.WEB-DL.H264-XWT.mp4.html
    
    http://www.hitfile.net/awfb/Wrstlemnia.WEB-DL.H264-XWT.mp4.html


 

 

Posting Permissions

  • You may not post new threads
  • You may not post replies
  • You may not post attachments
  • You may not edit your posts
  •