Page 1 of 3 123 LastLast
Results 1 to 20 of 56
  1. #1
    dR Contributor www.desirulez.net
    Join Date
    Sep 2009
    Posts
    305

    T

    Talking My 1950 To 2005 Bollywood Movies | Orignal Dvd Rip | Collaction | Regular Update

    Follow us on Social Media











    Dil Se.. 1998 | 1CDRip OrignalDVDRip | X264 | KoM










    Banner
    India Talkies

    Status
    Released

    Color
    C

    Release Date
    August 21, 1998

    Language
    Hindi

    Genre
    Musical / Thriller / Drama / Romance

    Producer
    Mani Ratnam
    Ram Gopal Varma

    Executive Producer / Co-Producer
    Mani Ratnam
    Ram Gopal Varma

    Director
    Mani Ratnam

    Star Cast
    Shahrukh Khan...... Amarkanth Varma
    Manisha Koirala...... Meghna
    Malaika Arora...... Dancer on train
    Preity Zinta...... Preeti Nair
    Rahat Ali
    Raghuveer Yadav...... Shukla (as Raghuvir Yadhav)
    Sabyasachi Chakravarthy
    Piyush Mishra
    Krishnakant...... (as Krisnkant)
    Sanjay Mishra
    Zohra Sehgal...... Grandmother (as Zora Seghal)
    Gajraj Rao...... (as Gajaraj Rao)
    Sheeba Chaddha
    Rajiv Gupta...... (as Rajeev Gupta)
    Anupam Shyam
    Alka

    Cassettes and CD's on
    Venus Records & Tapes

    Singers
    Sukhwinder Singh
    Sapna Awasthi
    A R Rahman
    Anuradha Paudwal
    Anupama
    Udit Narayan
    Mahalaxmi
    Lata Mangeshkar
    Sonu Nigam
    Kavita Krishnamurthy

    Lyricist
    Gulzar
    Tejpal Kaur

    Music Director
    A R Rahman

    Cinematography
    Santosh Sivan

    Choreography
    Farah Khan
    Pappu Khanna

    Action
    Allan Amin

    Art
    Samir Chanda

    Editor
    Suresh Urs

    Screenplay
    Mani Ratnam

    Dialogue
    Tigmanshu Dhulia

    Costume
    Pia Benegal
    Shabina Khan

    Story / Writer
    Mani Ratnam






























    Code:
    .. K i n g o f M o v i e   ..   P r a u d l e y p r e g a n t s ..
    
    General
    Complete name                    : C:Dil.Se..1998.OrignalDVDRip.1CDRip.X264[kingofmoviesandmusic].mkv
    Format                           : Matroska
    File size                        : 697 MiB
    Duration                         : 2h 39mn
    Overall bit rate                 : 612 Kbps
    Encoded date                     : UTC 2009-08-27 08:24:53
    Writing application              : mkvmerge v2.9.7 ('Tenderness') built on Jul  1 2009 18:43:35
    Writing library                  : libebml v0.7.7 + libmatroska v0.8.1
    
    Video
    ID                               : 1
    Format                           : AVC
    Format/Info                      : Advanced Video Codec
    Format profile                   : [email protected]
    Format settings, CABAC           : Yes
    Format settings, ReFrames        : 10 frames
    Muxing mode                      : Container [email protected]
    Codec ID                         : V_MPEG4/ISO/AVC
    Duration                         : 2h 39mn
    Bit rate                         : 560 Kbps
    Nominal bit rate                 : 570 Kbps
    Width                            : 672 pixels
    Height                           : 272 pixels
    Display aspect ratio             : 2.471
    Frame rate                       : 25.000 fps
    Resolution                       : 24 bits
    Colorimetry                      : 4:2:0
    Scan type                        : Progressive
    Bits/(Pixel*Frame)               : 0.122
    Stream size                      : 637 MiB (91%)
    Writing library                  : x264 core 68 r1183M f21daff
    Encoding settings                : cabac=1 / ref=10 / deblock=1:-2:-1 / analyse=0x3:0x113 / me=umh / subme=6 / psy_rd=1.0:0.0 / mixed_ref=1 / me_range=16 / chroma_me=1 / trellis=2 / 8x8dct=1 / cqm=0 / deadzone=21,11 / chroma_qp_offset=-2 / threads=3 / nr=0 / decimate=0 / mbaff=0 / bframes=16 / b_pyramid=1 / b_adapt=1 / b_bias=0 / direct=3 / wpredb=1 / keyint=250 / keyint_min=25 / scenecut=40 / rc=2pass / bitrate=570 / ratetol=1.0 / qcomp=0.60 / qpmin=10 / qpmax=51 / qpstep=4 / cplxblur=20.0 / qblur=0.5 / ip_ratio=1.40 / pb_ratio=1.30 / aq=1:1.00
    Language                         : English
    
    Audio
    ID                               : 2
    Format                           : MPEG Audio
    Format version                   : Version 2
    Format profile                   : Layer 3
    Codec ID                         : A_MPEG/L3
    Codec ID/Hint                    : MP3
    Duration                         : 2h 39mn
    Bit rate mode                    : Constant
    Bit rate                         : 40.0 Kbps
    Channel(s)                       : 2 channels
    Sampling rate                    : 16.0 KHz
    Resolution                       : 16 bits
    Stream size                      : 45.6 MiB (7%)
    Writing library                  : LAME3.98r
    Encoding settings                : -m j -V 4 -q 2 -lowpass 7 -b 40
    
    Credit to Original Ripper
     
    



    Code:
    http://www.easy-share.com/1907548440/Dil Se orignalDVDRIP 1CD x264 [kingofmoviesandmusic].mkv.004
    http://www.easy-share.com/1907548447/Dil Se orignalDVDRIP 1CD x264 [kingofmoviesandmusic].mkv.001
    http://www.easy-share.com/1907548456/Dil Se orignalDVDRIP 1CD x264 [kingofmoviesandmusic].mkv.002
    http://www.easy-share.com/1907548465/Dil Se orignalDVDRIP 1CD x264 [kingofmoviesandmusic].mkv.003


    Code:
    http://www.filefactory.com/file/ah43282/n/Dil_Se_orignalDVDRIP_1CD_x264_kingofmoviesandmusic_mkv_001
    http://www.filefactory.com/file/ah43231/n/Dil_Se_orignalDVDRIP_1CD_x264_kingofmoviesandmusic_mkv_002
    http://www.filefactory.com/file/ah4329e/n/Dil_Se_orignalDVDRIP_1CD_x264_kingofmoviesandmusic_mkv_003
    http://www.filefactory.com/file/ah4321a/n/Dil_Se_orignalDVDRIP_1CD_x264_kingofmoviesandmusic_mkv_004
    Use HjSplit to Join the above files.
    Code:
    http://www.easy-share.com/1907468224/hjsplit.exe

  2. #2
    dR Contributor www.desirulez.net
    Join Date
    Sep 2009
    Posts
    305

    T

    Default





    DIL HAI KI MANTA NAHI (1991) | 2 CD | OrignaL DVDRIP | KoM







    Banner
    Super Cassettes Industries Ltd

    Status
    Released

    Color
    C

    Release Date
    July 12, 1991

    Language
    Hindi

    Genre
    Adventure / Comedy / Musical / Drama

    Producer
    Gulshan Kumar
    Mukesh Bhatt

    Executive Producer / Co-Producer
    Mukesh Bhatt

    Director
    Mahesh Bhatt

    Star Cast
    Aamir Khan...... Raghu Jetley
    Pooja Bhatt...... Pooja Dharamchand
    Anupam Kher...... Seth Dharamchand
    Shammi...... Parsi Lady who gives lift
    Deepak Tijori...... Fisherman
    Rakesh Bedi...... Private Detective
    Javed Khan...... Purse Snatcher
    Virendra Saxena...... Private Detective
    Tiku Talsania...... Sharmaji, the Editor
    Ghanshyam
    Avtar Gill...... Kidnapper
    Mushtaq Khan...... Bus Conductor
    Amrit Patel...... Deepak Kumar's Secretary
    Shobha Khote...... Inn Keeper's Wife
    Rajesh Puri...... Dharamchand's P.A.

    Cassettes and CD's on
    T-Series

    Singers
    Anuradha Paudwal
    Babla Mehta
    Kumar Sanu
    Abhijeet

    Lyricist
    Sameer
    Faiz Anwar
    Aziz Khan
    Rani Malik

    Music Director
    Nadeem Saifee
    Shravan

    Cinematography
    Praveen Bhatt

    Screenplay
    Robin Bhatt

    Costume
    Anna Singh

    Publicity Designs
    Studio Link

    Story / Writer
    Robin Bhatt


















    Code:
    .. K i n g o f M o v i e   ..   P r a u d l e y p r e g a n t s ..
    
    General
    Complete name                    : C:  DIL HAI KI MANTA NAHI (1991)  2 CD  OrignaL DVDRIP  KoM.avi
    Format                           : AVI
    Format/Info                      : Audio Video Interleave
    File size                        : 1.37 GiB
    Duration                         : 2h 35mn
    Overall bit rate                 : 1 259 Kbps
    Writing application              : VirtualDubMod 1.5.10.2 (build 2540/release)
    Writing library                  : VirtualDubMod build 2540/release
    
    Video
    ID                               : 0
    Format                           : MPEG-4 Visual
    Format profile                   : Advanced [email protected]
    Format settings, BVOP            : Yes
    Format settings, QPel            : No
    Format settings, GMC             : No warppoints
    Format settings, Matrix          : Default (H.263)
    Muxing mode                      : Packed bitstream
    Codec ID                         : XVID
    Codec ID/Hint                    : XviD
    Duration                         : 2h 35mn
    Bit rate                         : 1 120 Kbps
    Width                            : 544 pixels
    Height                           : 288 pixels
    Display aspect ratio             : 1.889
    Frame rate                       : 29.970 fps
    Resolution                       : 24 bits
    Colorimetry                      : 4:2:0
    Scan type                        : Progressive
    Bits/(Pixel*Frame)               : 0.238
    Stream size                      : 1.21 GiB (89%)
    Writing library                  : XviD 1.1.2 (UTC 2006-11-01)
    
    Audio
    ID                               : 1
    Format                           : MPEG Audio
    Format version                   : Version 1
    Format profile                   : Layer 3
    Codec ID                         : 55
    Codec ID/Hint                    : MP3
    Duration                         : 2h 35mn
    Bit rate mode                    : Constant
    Bit rate                         : 128 Kbps
    Channel(s)                       : 2 channels
    Sampling rate                    : 48.0 KHz
    Resolution                       : 16 bits
    Stream size                      : 142 MiB (10%)
    Alignment                        : Aligned on interleaves
    Interleave, duration             : 33 ms (1.00 video frame)
    Interleave, preload duration     : 504 ms
    
    
    
    













    Code:
    http://www.filefactory.com/file/ah6cf2d/n/DIL_HAI_KI_MANTA_NAHI_1991_2_CD_OrignaL_DVDRIP_KoM_avi_001
    http://www.filefactory.com/file/ah6cf5g/n/DIL_HAI_KI_MANTA_NAHI_1991_2_CD_OrignaL_DVDRIP_KoM_avi_002
    http://www.filefactory.com/file/ah6cf6d/n/DIL_HAI_KI_MANTA_NAHI_1991_2_CD_OrignaL_DVDRIP_KoM_avi_003
    http://www.filefactory.com/file/ah6cf7g/n/DIL_HAI_KI_MANTA_NAHI_1991_2_CD_OrignaL_DVDRIP_KoM_avi_004
    http://www.filefactory.com/file/ah6cf85/n/DIL_HAI_KI_MANTA_NAHI_1991_2_CD_OrignaL_DVDRIP_KoM_avi_005
    http://www.filefactory.com/file/ah6cf97/n/DIL_HAI_KI_MANTA_NAHI_1991_2_CD_OrignaL_DVDRIP_KoM_avi_006
    http://www.filefactory.com/file/ah6cga5/n/DIL_HAI_KI_MANTA_NAHI_1991_2_CD_OrignaL_DVDRIP_KoM_avi_007
    http://www.filefactory.com/file/ah6cgba/n/DIL_HAI_KI_MANTA_NAHI_1991_2_CD_OrignaL_DVDRIP_KoM_avi_008


    Code:
    http://www.easy-share.com/1907623718/DIL HAI KI MANTA NAHI (1991)  2 CD  OrignaL DVDRIP  KoM.avi.001
    http://www.easy-share.com/1907623719/DIL HAI KI MANTA NAHI (1991)  2 CD  OrignaL DVDRIP  KoM.avi.003
    http://www.easy-share.com/1907623734/DIL HAI KI MANTA NAHI (1991)  2 CD  OrignaL DVDRIP  KoM.avi.002
    http://www.easy-share.com/1907636428/DIL HAI KI MANTA NAHI (1991)  2 CD  OrignaL DVDRIP  KoM.avi.008
    http://www.easy-share.com/1907636437/DIL HAI KI MANTA NAHI (1991)  2 CD  OrignaL DVDRIP  KoM.avi.004
    http://www.easy-share.com/1907636444/DIL HAI KI MANTA NAHI (1991)  2 CD  OrignaL DVDRIP  KoM.avi.007
    http://www.easy-share.com/1907636468/DIL HAI KI MANTA NAHI (1991)  2 CD  OrignaL DVDRIP  KoM.avi.006
    http://www.easy-share.com/1907636479/DIL HAI KI MANTA NAHI (1991)  2 CD  OrignaL DVDRIP  KoM.avi.005
    Use HjSplit to Join the above files.
    Code:
    http://www.easy-share.com/1907468224/hjsplit.exe

  3. #3
    dR Contributor www.desirulez.net
    Join Date
    Sep 2009
    Posts
    305

    T

    Default





    Chandni 1989 | 1 CD | OrignaL DVDRIP | KoM








    S.T.A.R C.A.S.T

    Vinod Khanna : Lalit Khanna
    Rishi Kapoor : Rohit Gupta
    Sridevi : Chandni Mathur
    Waheeda Rehman : Mrs. Khanna
    Sushma Seth : Mrs. Gupta
    Achala Sachdev : (as Achla Sachdev)
    Beena Banerjee : Pooja (as Bina)
    Manohar Singh
    Renu Arya
    Mita Vasisht : Kiran Mathur (as Meeta Vasisht)
    Asha Sharma
    Anant Mahadevan
    Manju Maini
    Shyam Arora
    Ram Gopal Bajaj : Shiv Prasad Mathur


    S.Y.N.O.P.S.I.S

    Love comes to Chandni (Sridevi) and Rohit (Rishi Kapoor) in one breathless moment as if time and hearts have stopped. They plan the happiness of the shared future. But life has other plans. In one cruel stroke of fate, Chandni faces life alone, her heart and her dreams shattered. Then she meets Lalit (Vinod Khanna). Lalit, whose eyes are dark with the shadows of the tragic memories of his first love. But in Chandni's smile he sees a wonderful radiance that for the first time chases those shadows away. Lalit's affecton gives a new direction to Chandni's life, till one day, she meets Rohit again. Now all three stand at the crossroads of love, pawns with the game that love plays with life. Who will win? Life or love?



    Banner
    Yash Raj Films

    Status
    Released

    Color
    C

    Release Date
    September 15, 1989

    Genre
    Musical / Romance

    Producer
    Yash Chopra

    Director
    Yash Chopra

    Star Cast
    Rishi Kapoor...... Rohit Gupta
    Sridevi...... Chandni
    Vinod Khanna...... Lalit Khanna
    Beena
    Anupam Kher...... Ramesh (Guest Appearance)
    Sushma Seth...... Mrs. Gupta (Rohit's mom)
    Waheeda Rehman...... Mrs. Khanna (Lalit's mom)
    Juhi Chawla...... special appearance,Devika (Guest Appearance)
    Achla Sachdev...... (as Achla Sachdev)
    Manohar Singh
    Renu Arya
    Meeta Vasisht...... Kiran (as Meeta Vasisht)
    Anant Mahadevan
    Asha Sharma
    Suhas Joshi
    Lalit Tiwari
    Ram Gopal Bajaj...... Shiv Prasad Mathur
    Bharat Bhushan

    Singers
    Lata Mangeshkar
    Sridevi
    Jolly Mukherjee
    Suresh Wadkar
    Pamela Chopra
    Vinod Rathod
    Babla Mehta
    Asha Bhosle
    Nitin Mukesh

    Lyricist
    Anand Bakshi

    Music Director
    Shiv Hari

    Cinematography
    Manmohan Singh

    Choreography
    Saroj Khan

    Art
    Sudhendru Roy

    Editor
    Keshav Naidu

    Screenplay
    Arun Kaul

    Sound
    Anuj Mathur

    Dialogue
    Sagar Sarhadi

    Costume
    Bhanu Athaiya
    Neeta Lulla
    Leena Daru



















    Code:
    .. K i n g o f M o v i e   ..   P r a u d l e y p r e g a n t s ..
    
    
    S.P.E.C.I.F.I.C.A.T.I.O.N.S
       
    Genre		: Romance | Musical
    Title 		: Chandni
    Release Date	: 1989
    Size		: 703 MB
    Format		: mp4
    
    
    
    













    Code:
    http://www.easy-share.com/1907729725/Chandni_1989_ 1CD_OrignaL.DvDRip_mp4_[KoM].mp4.001
    http://www.easy-share.com/1907729726/Chandni_1989_ 1CD_OrignaL.DvDRip_mp4_[KoM].mp4.002
    http://www.easy-share.com/1907729742/Chandni_1989_ 1CD_OrignaL.DvDRip_mp4_[KoM].mp4.003
    http://www.easy-share.com/1907729711/Chandni_1989_ 1CD_OrignaL.DvDRip_mp4_[KoM].mp4.004


    Code:
    http://www.filefactory.com/file/ah8b7hb/n/Chandni_1989_1CD_OrignaL_DvDRip_mp4_KoM_mp4_001
    http://www.filefactory.com/file/ah8b717/n/Chandni_1989_1CD_OrignaL_DvDRip_mp4_KoM_mp4_002
    http://www.filefactory.com/file/ah8b727/n/Chandni_1989_1CD_OrignaL_DvDRip_mp4_KoM_mp4_003
    http://www.filefactory.com/file/ah8b7e5/n/Chandni_1989_1CD_OrignaL_DvDRip_mp4_KoM_mp4_004


    Code:
     
    
    
    http://depositfiles.com/files/tkv8yruyu
    http://depositfiles.com/files/v6r3wsk2o
    http://depositfiles.com/files/ap7wdw1s9
    http://depositfiles.com/files/p4sx76yok
    Use HjSplit to Join the above files.
    Code:
    http://www.easy-share.com/1907468224/hjsplit.exe

  4. #4
    dR Contributor www.desirulez.net
    Join Date
    Sep 2009
    Posts
    305

    T

    Default




    Mother.India 1975 | 1 CD | OrignaL DVDRIP | KoM





    Banner
    Mehboob Productions

    Status
    Released

    Color
    C

    Release Date
    February 14, 1957

    Genre
    Musical / Social / Family Drama

    Director
    Mehboob Khan

    Star Cast
    Sunil Dutt...... Birju
    Nargis Dutt...... Radha
    Raaj Kumar...... Shamu (Radha's Husband)
    Kanhaiya Lal
    Rajendra Kumar...... Ramu
    Jillo
    Kumkum...... Champa
    Mukri...... Shambu (as Muqri)
    Azra...... Chandra
    Chanchal
    Fakir Mohd...... (as Faqir Mohomed)
    Geeta
    Sitara Devi...... (as Sitaradevi)
    Sajid Khan (1)...... Young Birju (as Master Sajid)

    Singers
    Shamshad Begum
    Mohammed Rafi
    Manna Dey
    Asha Bhosle
    Lata Mangeshkar
    Usha Mangeshkar

    Lyricist
    Shakeel Badayuni

    Music Director
    Naushad Ali

    Sound
    Kaushik

    Dialogue
    Ali Raza
    Wajahat Mirza




















    Code:
    
    
     K i n g o f M o v i e   ..   P r a u d l e y p r e g a n t s 
    
    .                                                                .
    
    




    Sample


    Code:
    http://www.easy-share.com/1907782701/Sample.Mother.India.1957.1cd.OrignaL.DVDrip.[KoM].mkv



    Code:
    
    
    http://rapidshare.com/files/280759791/Mother.India.1957.1cd.OrignaL.DVDrip._KoM_.mkv.001
    http://rapidshare.com/files/280754552/Mother.India.1957.1cd.OrignaL.DVDrip._KoM_.mkv.002
    http://rapidshare.com/files/280755681/Mother.India.1957.1cd.OrignaL.DVDrip._KoM_.mkv.003
    http://rapidshare.com/files/280754965/Mother.India.1957.1cd.OrignaL.DVDrip._KoM_.mkv.004


    Code:
    http://www.easy-share.com/1907782764/Mother.India.1957.1cd.OrignaL.DVDrip.[KoM].mkv.001
    http://www.easy-share.com/1907782688/Mother.India.1957.1cd.OrignaL.DVDrip.[KoM].mkv.002
    http://www.easy-share.com/1907782694/Mother.India.1957.1cd.OrignaL.DVDrip.[KoM].mkv.003
    http://www.easy-share.com/1907782699/Mother.India.1957.1cd.OrignaL.DVDrip.[KoM].mkv.004


    Code:
    http://www.filefactory.com/file/ah9he39/n/Mother_India_1957_1cd_OrignaL_DVDrip_KoM_mkv_001
    http://www.filefactory.com/file/ah9he32/n/Mother_India_1957_1cd_OrignaL_DVDrip_KoM_mkv_002
    http://www.filefactory.com/file/ah9he44/n/Mother_India_1957_1cd_OrignaL_DVDrip_KoM_mkv_003
    http://www.filefactory.com/file/ah9he38/n/Mother_India_1957_1cd_OrignaL_DVDrip_KoM_mkv_004


    Code:
     
    http://depositfiles.com/files/2vps1enn4
    http://depositfiles.com/files/ezjgv7tik
    http://depositfiles.com/files/50wrfig5u
    http://depositfiles.com/files/lp7uo4uav
    Use HjSplit to Join the above files.
    Code:
    http://www.easy-share.com/1907468224/hjsplit.exe

  5. #5
    dR Contributor www.desirulez.net
    Join Date
    Sep 2009
    Posts
    305

    T

    Default




    Bhagban 2003 | 1 CD | OrignaL DVDRIP | X264 | RS-ES-FF-DS











    Banner
    BR Films

    Status
    Released

    Color
    C

    Release Date
    October 3, 2003

    Genre
    Romance / Family Drama

    Producer
    B R Chopra

    Director
    Ravi Chopra

    Star Cast
    Amitabh Bachchan...... Raj Malhotra
    Hema Malini...... Pooja Malhotra
    Salman Khan...... Alok Raj (Special Appearance)
    Mahima Choudhary...... Arpita Raj (Special Appearance)
    Aman Verma...... Ajay Malhotra
    Sameer Soni...... Sanjay Malhotra
    Saahil Chadha...... Rohit Malhotra
    Nasir Kazi...... Karan Malhotra
    Divya Dutta...... Reena Malhotra
    Suman Ranganathan...... Kiran Malhotra
    Rimi Sen...... Payal Malhotra
    Paresh Rawal...... Hemant Patel
    Lilette Dubey...... Shanti Patel
    Mohan Joshi...... Khuber Desai, Hotel Owner
    Sharat Saxena...... Ram Avtaar
    Arzoo Govitrikar...... Priya Malhotra
    Anang Desai...... Kapil Desai
    Master Yash Pathak...... Rahul Malhotra
    Nakul Vaid...... Rahul Malhotra
    Avtar Gill...... Rawat, ICICI Bank Manager
    Asrani...... Bedi
    Shashi Kiran
    Gajendra Chauhan...... Car salesman
    Sanjeeda Sheikh

    Cassettes and CD's on
    T-Series

    Singers
    Alka Yagnik
    Udit Narayan
    Sudesh Bhosle
    Hema Sardesai
    Amitabh Bachchan
    Aadesh Shrivastav
    Sukhwinder Singh
    Richa Sharma
    Sneha Pant

    Lyricist
    Sameer
    Hasan Kamaal

    Music Director
    Aadesh Shrivastav
    Uttam Singh

    Cinematography
    Barun Mukherji

    Choreography
    Vaibhavi Merchant

    Art
    Ashok Bhushan
    Keshto Mondal

    Editor
    Shailendra Doke
    Godfrey Gonsalves
    Shashi Mane

    Screenplay
    Achala Nagar
    Satish Bhatnagar
    Ram Govind
    Shafiq Ansari

    Dialogue
    Achala Nagar
    Satish Bhatnagar
    Ram Govind
    Shafiq Ansari

    Publicity Designs
    Leo Entertainment

    Story / Writer
    B R Chopra
    Achala Nagar
    Satish Bhatnagar
    Ram Govind
    Shafiq Ansari
























    Code:
    
    
     K i n g o f M o v i e   ..   P r a u d l e y p r e g a n t s 
    
    
    
    
    
    Credit TO Orignal Ripper - princeplain




    Sample


    Code:
    http://www.sendspace.com/file/t1zari



    Code:
    http://rapidshare.com/files/283919736/Bhagban._2003_.OrigNal.DVDRip.X264.Mp3.1cdrip._KoM_.avi.001
    http://rapidshare.com/files/283918250/Bhagban._2003_.OrigNal.DVDRip.X264.Mp3.1cdrip._KoM_.avi.002
    http://rapidshare.com/files/283921312/Bhagban._2003_.OrigNal.DVDRip.X264.Mp3.1cdrip._KoM_.avi.003
    http://rapidshare.com/files/283917947/Bhagban._2003_.OrigNal.DVDRip.X264.Mp3.1cdrip._KoM_.avi.004


    Code:
    http://www.easy-share.com/1907486260/Bhagban (2003)- DVDRip - X264 - AC3- [Kingofmoviesandmusic].mkv.004
    http://www.easy-share.com/1907486264/Bhagban (2003)- DVDRip - X264 - AC3- [Kingofmoviesandmusic].mkv.001
    http://www.easy-share.com/1907486275/Bhagban (2003)- DVDRip - X264 - AC3- [Kingofmoviesandmusic].mkv.002
    http://www.easy-share.com/1907486277/Bhagban (2003)- DVDRip - X264 - AC3- [Kingofmoviesandmusic].mkv.003


    Code:
    http://www.filefactory.com/file/a0bf873/n/Bhagban_2003_OrigNal_DVDRip_X264_Mp3_1cdrip_KoM_avi_001
    http://www.filefactory.com/file/a0bf870/n/Bhagban_2003_OrigNal_DVDRip_X264_Mp3_1cdrip_KoM_avi_002
    http://www.filefactory.com/file/a0bf872/n/Bhagban_2003_OrigNal_DVDRip_X264_Mp3_1cdrip_KoM_avi_003
    http://www.filefactory.com/file/a0bf853/n/Bhagban_2003_OrigNal_DVDRip_X264_Mp3_1cdrip_KoM_avi_004


    Code:
     
    http://depositfiles.com/files/0hjp1lceq
    http://depositfiles.com/files/jil68phz4
    http://depositfiles.com/files/fkycdhza5
    http://depositfiles.com/files/pl9rb1878
    Use HjSplit to Join the above files.
    Code:
    http://www.easy-share.com/1907468224/hjsplit.exe

  6. #6
    dR Contributor www.desirulez.net
    Join Date
    Sep 2009
    Posts
    305

    T

    Default




    Mother.India 1975 | 1 CD | OrignaL DVDRIP | KoM





    Banner
    Mehboob Productions

    Status
    Released

    Color
    C

    Release Date
    February 14, 1957

    Genre
    Musical / Social / Family Drama

    Director
    Mehboob Khan

    Star Cast
    Sunil Dutt...... Birju
    Nargis Dutt...... Radha
    Raaj Kumar...... Shamu (Radha's Husband)
    Kanhaiya Lal
    Rajendra Kumar...... Ramu
    Jillo
    Kumkum...... Champa
    Mukri...... Shambu (as Muqri)
    Azra...... Chandra
    Chanchal
    Fakir Mohd...... (as Faqir Mohomed)
    Geeta
    Sitara Devi...... (as Sitaradevi)
    Sajid Khan (1)...... Young Birju (as Master Sajid)

    Singers
    Shamshad Begum
    Mohammed Rafi
    Manna Dey
    Asha Bhosle
    Lata Mangeshkar
    Usha Mangeshkar

    Lyricist
    Shakeel Badayuni

    Music Director
    Naushad Ali

    Sound
    Kaushik

    Dialogue
    Ali Raza
    Wajahat Mirza




















    Code:
    
    
     K i n g o f M o v i e   ..   P r a u d l e y p r e g a n t s 
    
    .                                                                .
    
    




    Sample


    Code:
    http://www.easy-share.com/1907782701/Sample.Mother.India.1957.1cd.OrignaL.DVDrip.[KoM].mkv



    Code:
    
    
    http://rapidshare.com/files/280759791/Mother.India.1957.1cd.OrignaL.DVDrip._KoM_.mkv.001
    http://rapidshare.com/files/280754552/Mother.India.1957.1cd.OrignaL.DVDrip._KoM_.mkv.002
    http://rapidshare.com/files/280755681/Mother.India.1957.1cd.OrignaL.DVDrip._KoM_.mkv.003
    http://rapidshare.com/files/280754965/Mother.India.1957.1cd.OrignaL.DVDrip._KoM_.mkv.004


    Code:
    http://www.easy-share.com/1907782764/Mother.India.1957.1cd.OrignaL.DVDrip.[KoM].mkv.001
    http://www.easy-share.com/1907782688/Mother.India.1957.1cd.OrignaL.DVDrip.[KoM].mkv.002
    http://www.easy-share.com/1907782694/Mother.India.1957.1cd.OrignaL.DVDrip.[KoM].mkv.003
    http://www.easy-share.com/1907782699/Mother.India.1957.1cd.OrignaL.DVDrip.[KoM].mkv.004


    Code:
    http://www.filefactory.com/file/ah9he39/n/Mother_India_1957_1cd_OrignaL_DVDrip_KoM_mkv_001
    http://www.filefactory.com/file/ah9he32/n/Mother_India_1957_1cd_OrignaL_DVDrip_KoM_mkv_002
    http://www.filefactory.com/file/ah9he44/n/Mother_India_1957_1cd_OrignaL_DVDrip_KoM_mkv_003
    http://www.filefactory.com/file/ah9he38/n/Mother_India_1957_1cd_OrignaL_DVDrip_KoM_mkv_004


    Code:
     
    http://depositfiles.com/files/2vps1enn4
    http://depositfiles.com/files/ezjgv7tik
    http://depositfiles.com/files/50wrfig5u
    http://depositfiles.com/files/lp7uo4uav
    Use HjSplit to Join the above files.
    Code:
    http://www.easy-share.com/1907468224/hjsplit.exe

  7. #7
    ~{Princess}~ www.desirulez.net
    Join Date
    Oct 2008
    Location
    SOUTH AFRICA
    Posts
    4,293

    T

    Default

    thanks for the movies



  8. #8
    Runner Up - Masters Awards www.desirulez.net
    Join Date
    Jun 2009
    Location
    ---HAR EK KE DIL MEIN---
    Posts
    2,393

    T

    Default

    great post

  9. #9
    dR Contributor www.desirulez.net
    Join Date
    Sep 2009
    Posts
    305

    T

    Default







    Black Friday [2004]| 1Cd | OrignaL DvdRip | XviD | Sub | RS-ES-DS








    By kingofmovie




    Banner
    Midday
    Adlabs Films Ltd

    Status
    Released

    Color
    C

    Release Date
    February 9, 2007

    Language
    Hindi

    Genre
    Crime / Drama

    Producer
    Arindam Mitra

    Director
    Anurag Kashyap

    Star Cast
    Kay Kay Menon...... Inspector Rakesh Maria (D C P Traffic Zone 4)
    Pawan Malhotra...... Tiger Memon (Mushtaq Memon)
    Aditya Srivastav...... police informer ?Badshah Khan?
    Zakir Hussain...... Nand Kumar Choughale (Senior Police Inspector BDDS)
    Pankaj Jha...... Anwar Theba
    Murli Sharma...... Virendra Vani (Sub Inspector)
    Vijay Morya...... Dawood Ibrahim Kaskar
    Dibyendu Bhattacharya...... Yeda Yakub
    Arbaaz Ali Khan...... Javed Chikna
    Ravi Kale...... Sawant (Inspector BDDS)
    Gajraj Rao...... Dawood Phanse
    Raju Shreshta...... Parvas Shaikh
    Ashraf Ul Haq...... Bashir Khan
    Pratima Kazmi...... Badshah's mother
    Aditya Bhattacharya...... Sheikh Aziz
    Arindam Mitra...... M V Ramani
    Anurag Kashyap...... ISI man
    Jeetendra Shastri...... Salim Phansopkar
    Asif Basra...... Shahnawaz Qureshi
    Ajay Rohila...... R K Singh (A C C)
    Kishore Kadam...... Shankar Dangle (A C P)
    Imtiaz Ali...... Yakub Menon
    Manoj Goyal...... Qullu Mohammed Khan
    Suresh Dubey...... Sabir
    Sanjay Gandhi...... M L Dishno (D C P)
    Uday Chandra...... Old Neighbour at Al Hussaini
    Sachin Suvarna...... Shoaib Ghansore
    Rajesh Singh...... Bell Boy at Juhu Centaur
    Arjun Bagga...... Sultan (Khan Durrani)
    Sujata Sehgal...... Nafeesa Khan
    Loveleen Mishra...... News Track Interviewer
    Raj Arjun...... Nasir Deklu
    Prakash Jais...... Farooq Pawale
    Ashok Lokhande...... Sub Inspector at Navpada Police Station
    Nawazuddin Siddiqui...... Asgar Yusuf Mukadam
    Milind Inandar...... Mohamed Iqbal
    Happy Sharma...... Sardar Khan
    Anwar Khan...... Ayub Memon
    Bharat Ganeshpure...... Kadam (Inspector BDDS)
    Sushovan Banerjee...... Abhay Zarapkar (Inspector BDDS)
    Savi Siddhu...... A S Samra (Commissioner of Police)
    Sarfaraz Khan...... Taxi Driver at Princess Street Flyover
    Haresh Panchal...... M. N. Singh (J C P Crime)
    Sharad Ponkshe...... Anup Painath (D C P Zone 1)
    Vallabh Gade...... Scooter Complainant
    Pranay Narayan...... Imtiaz Ghavate
    Aliya Curmally...... Shabaaz Ibrahim Memon
    Suresh Singh...... Majid Khan
    Irshaad...... Piloo Khan

    Cassettes and CD's on
    Times Music

    Lyricist
    Piyush Mishra

    Music Director
    Indian Ocean

    Cinematography
    N Natarajan Subramaniam

    Editor
    Aarti Bajaj

    Screenplay
    Anurag Kashyap

    Sound
    Sanjay Maurya
    K J Singh
    Kunal Sharma

    Costume
    Fabeha

    Media Relations
    Gopal Pandey

    Publicity Designs
    Studio Link









    By kingofmovie

    By kingofmovie

    By kingofmovie

    By kingofmovie

    By kingofmovie

    By kingofmovie

    By kingofmovie

    By kingofmovie

    By kingofmovie






    Code:
    .. K i n g o f M o v i e   ..   P r a u d l e y p r e g a n t s ..
    
    Click For Info..............BLACK FRIDAY[2004]
    [email protected]
    VIDEO
    Size........................695Mb
    Duration..................02:41:12
    Resolution................672x304
    Data Rate................588kbps
    Frame Rate..............23fr/sec
    Compression...........Xvid
    AUDIO
    Bit Rate.................128kbps
    Format.................Ac3
    

    Credit To Orignal Ripper = SMARTRAN63


    Sample

    Click For English Subtitles






    Code:
    http://rapidshare.com/files/284744411/Black_Friday.OrignaL.DvdRip__kingofmoviesandmusic_.avi.001
    http://rapidshare.com/files/284742768/Black_Friday.OrignaL.DvdRip__kingofmoviesandmusic_.avi.002
    http://rapidshare.com/files/284744507/Black_Friday.OrignaL.DvdRip__kingofmoviesandmusic_.avi.003
    http://rapidshare.com/files/284741310/Black_Friday.OrignaL.DvdRip__kingofmoviesandmusic_.avi.004




    Code:
    http://www.easy-share.com/1907322040/Black Friday.OrignaL.DvdRip [kingofmoviesandmusic].avi.001
    http://www.easy-share.com/1907322046/Black Friday.OrignaL.DvdRip [kingofmoviesandmusic].avi.002
    http://www.easy-share.com/1907322065/Black Friday.OrignaL.DvdRip [kingofmoviesandmusic].avi.003
    http://www.easy-share.com/1907322110/Black Friday.OrignaL.DvdRip [kingofmoviesandmusic].avi.004



    Code:
     
    
    http://depositfiles.com/files/g9khzfgkp
    http://depositfiles.com/files/82r7bpflb
    http://depositfiles.com/files/tu1hy9847
    http://depositfiles.com/files/8pymxfkng
    Use HjSplit to Join the above files.
    Code:
    http://www.easy-share.com/1907468224/hjsplit.exe

  10. #10
    dR Contributor www.desirulez.net
    Join Date
    Sep 2009
    Posts
    305

    T

    Default






    Maqbool 2004 Super Hit Bollywood Movie | 1Cd | OrignalDvdRip | X264 | KoM













    Banner
    Kaleidoscope Entertainment Pvt Ltd

    Status
    Released

    Color
    C

    Release Date
    January 30, 2004

    Language
    Hindi

    Genre
    Crime / Drama

    Producer
    Bobby Bedi

    Director
    Vishal Bhardwaj

    Star Cast
    Irrfan Khan...... Maqbool
    Tabu...... Nimmi
    Pankaj Kapoor...... Jahangir Khan (Abbaji)
    Naseruddin Shah...... Inspector Purohit
    Om Puri...... Inspector Pandit
    Piyush Mishra...... Kaka
    Masumeh Makhija...... Sameera (Abbaji's Daughter)
    Ajay Gehi...... Guddu (Kaka's son)
    Abbas Tyrewala...... Sadik Chikna
    Manav Kaushik...... Asif
    Murli Sharma...... Devsare
    Mohini Mathur...... Badi Bi
    Jitendra Shriamali...... Palekar's PA
    Shweta Menon...... Mohini
    Dibyendu Bhattacharya...... Chinna's Killer
    Deepak Dobriyal

    Cassettes and CD's on
    Music Today

    Singers
    Sadhana Sargam
    Anuradha Sriram
    Ustad Sultan Khan
    Rakesh Pandit
    Daler Mehndi
    Sabir Khan
    Dominique Cerejo
    Rekha Bhardwaj
    Sanjeev Abhyankar

    Lyricist
    Gulzar

    Music Director
    Vishal Bhardwaj

    Cinematography
    Hemant Chaturvedi

    Choreography
    Bhushan Lakhandri

    Art
    Jayant Deshmukh

    Editor
    Aarif Shaikh

    Screenplay
    Vishal Bharadwaj
    Abbas Tyrewala

    Sound
    K J Singh

    Dialogue
    Vishal Bhardwaj

    Publicity Designs
    Yash Raj Films Design Cell






































    Code:
     
    
    .. K i n g o f M o v i e   ..   P r a u d l e y p r e g a n t s ..
    
    
    
    Tech Info
    
    
    General
    Complete name    : Maqbool.2003.1Cd.DVDRip.Mkv.Aac.[kingofmoviesandmusic].mkv
    Format                           : Matroska
    File size                        : 696 MiB
    Duration                         : 2h 8mn
    Overall bit rate                 : 759 Kbps
    Encoded date                    : UTC 2009-08-01 15:52:54
    Writing application           : mkvmerge v2.9.7 ('Tenderness') built on Jul  1 2009 18:43:35
    Writing library                  : libebml v0.7.7 + libmatroska v0.8.1
    
    Video
    ID                               : 1
    Format                           : AVC
    Format/Info                      : Advanced Video Codec
    Format profile                   : [email protected]
    Format settings, CABAC           : Yes
    Format settings, ReFrames        : 1 frame
    Muxing mode                      : Container [email protected]
    Codec ID                         : V_MPEG4/ISO/AVC
    Duration                         : 2h 7mn
    Nominal bit rate                 : 663 Kbps
    Width                            : 736 pixels
    Height                           : 320 pixels
    Display aspect ratio             : 2.25
    Frame rate                       : 23.976 fps
    Resolution                       : 24 bits
    Colorimetry                      : 4:2:0
    Scan type                        : Progressive
    Bits/(Pixel*Frame)               : 0.117
    Writing library                  : x264 core 68 r1183M f21daff
    Language                         : English
    
    Audio
    ID                               : 2
    Format                           : AAC
    Format/Info                      : Advanced Audio Codec
    Format version                   : Version 4
    Format profile                   : LC
    Format settings, SBR             : No
    Codec ID                         : A_AAC
    Duration                         : 2h 8mn
    Channel(s)                       : 2 channels
    Channel positions                : L R
    Sampling rate                    : 48.0 KHz
    Resolution                       : 16 bits
    
    
    
    




    Sample:http://www.sendspace.com/file/1wp091


    Imdb Link: http://www.imdb.com/title/tt0379370/






    Code:
    http://rapidshare.com/files/286478415/Maqbool.2003.1Cd.OrignaL.DVDRip._kingofmoviesandmusic_.mkv.001
    http://rapidshare.com/files/286477260/Maqbool.2003.1Cd.OrignaL.DVDRip._kingofmoviesandmusic_.mkv.002
    http://rapidshare.com/files/286478470/Maqbool.2003.1Cd.OrignaL.DVDRip._kingofmoviesandmusic_.mkv.003
    http://rapidshare.com/files/286476783/Maqbool.2003.1Cd.OrignaL.DVDRip._kingofmoviesandmusic_.mkv.004




    Code:
    http://www.easy-share.com/1907363966/Maqbool.2003.1Cd.OrignaL.DVDRip.[kingofmoviesandmusic].mkv.001
    http://www.easy-share.com/1907363972/Maqbool.2003.1Cd.OrignaL.DVDRip.[kingofmoviesandmusic].mkv.002
    http://www.easy-share.com/1907363976/Maqbool.2003.1Cd.OrignaL.DVDRip.[kingofmoviesandmusic].mkv.003
    http://www.easy-share.com/1907363978/Maqbool.2003.1Cd.OrignaL.DVDRip.[kingofmoviesandmusic].mkv.004


    Code:
    http://www.filefactory.com/file/a0c854d/n/Maqbool_2003_1Cd_OrignaL_DVDRip_kingofmoviesandmusic_mkv_001
    http://www.filefactory.com/file/a0c854a/n/Maqbool_2003_1Cd_OrignaL_DVDRip_kingofmoviesandmusic_mkv_002
    http://www.filefactory.com/file/a0c854b/n/Maqbool_2003_1Cd_OrignaL_DVDRip_kingofmoviesandmusic_mkv_003
    http://www.filefactory.com/file/a0c853f/n/Maqbool_2003_1Cd_OrignaL_DVDRip_kingofmoviesandmusic_mkv_004


    Code:
     
    
    http://depositfiles.com/files/lkgn29bn6
    http://depositfiles.com/files/hr81yruun
    http://depositfiles.com/files/c19p5fgyw
    http://depositfiles.com/files/20zaoavr1
    Use HjSplit to Join the above files.
    Code:
    http://www.easy-share.com/1907468224/hjsplit.exe
    Use HjSplit to Join the above files.
    Code:
    http://www.easy-share.com/1907468224/hjsplit.exe
    [/center]

  11. #11
    dR Contributor www.desirulez.net
    Join Date
    Sep 2009
    Posts
    305

    T

    Default






    Hum Dil De Chuke Sanam 199 Super Hit Bolly Movie | 1Cd | OrignalDvdRip | X264 | KoM






    By kingofmovie






    Status
    Released

    Color
    C

    Release Date
    June 18, 1999

    Language
    Hindi

    Genre
    Comedy / Musical / Romance

    Producer
    Sanjay Leela Bhansali
    Jhamu Sughand

    Director
    Sanjay Leela Bhansali

    Star Cast
    Salman Khan...... Sameer Rafilini
    Ajay Devgan...... Vanraj
    Aishwarya Rai...... Nandini
    Zohra Sehgal...... Dadi
    Vikram Gokhale...... Pundit Darbar
    Smita Jaykar...... Amrita
    Rekha Rao...... Kamna Pui
    Kenny Desai...... Dadi
    Rajeev Varma...... Vikramjeet (Vanraj's dad)
    Kanu Gill...... Vanraj's mother
    Amrik Gill...... Panditji
    Vinay Pathak...... Tarun
    Helen...... Mrs. Rafilini (Sameer's mom (special appearance)
    Dimple Inamdar...... Shilpa
    Divya Jagdal...... Sanjukta
    Sheeba Chaddha...... Anupama
    Akash Karnataki...... Bharat
    Milind Ukey...... Indian musician

    Cassettes and CD's on
    T-Series

    Singers
    Kumar Sanu
    Kavita Krishnamurthy
    Ustad Sultan Khan
    Shankar Mahadevan
    Udit Narayan
    Alka Yagnik
    Vinod Rathod
    Karsan Sargathia
    Mohd. Vakil
    Dominique Cerejo
    Salamat
    Hariharan
    K K
    Jyotsana

    Lyricist
    Mehboob
    Sameer

    Music Director
    Ismail Darbar

    Background Music
    Anjan Biswas

    Cinematography
    Anil Mehta

    Choreography
    Saroj Khan
    Sanjay Leela Bhansali

    Art
    Nitin Chandrakant Desai

    Editor
    Baba Sehgal

    Sound
    Jitendra Chaudhary
    Bishwadeep Chatterjee
    Parikshit Lalwani
    K J Singh

    Dialogue
    Amrik Gill

    Costume
    Shabina Khan
    Neeta Lulla

    Story / Writer
    Sanjay Leela Bhansali






















    Code:
     
    
    .. K i n g o f M o v i e   ..   P r a u d l e y p r e g a n t s ..
    
    
    
    Tech Info
    
    
    Video
    Format                           : MPEG-4 Visual
    Format profile                   : Streaming [email protected]
    Format settings, BVOP            : Yes
    Format settings, QPel            : No
    Format settings, GMC             : No warppoints
    Format settings, Matrix          : Default
    Muxing mode                      : Packed bitstream
    Codec ID                         : XVID
    Codec ID/Hint                    : XviD
    Duration                         : 3h 5mn
    Bit rate                         : 384 Kbps
    Width                            : 640 pixels
    Height                           : 256 pixels
    Display aspect ratio             : 2.500
    Frame rate                       : 29.970 fps
    Resolution                       : 24 bits
    Colorimetry                      : 4:2:0
    Scan type                        : Progressive
    Bits/(Pixel*Frame)               : 0.078
    Stream size                      : 509 MiB (73%)
    Writing library                  : XviD 1.2.1 (UTC 2008-12-04)
    
    Audio
    Format                           : MPEG Audio
    Format version                   : Version 1
    Format profile                   : Layer 3
    Codec ID                         : 55
    Codec ID/Hint                    : MP3
    Duration                         : 3h 5mn
    Bit rate mode                    : Constant
    Bit rate                         : 128 Kbps
    Channel(s)                       : 2 channels
    Sampling rate                    : 44.1 KHz
    Resolution                       : 16 bits
    Stream size                      : 170 MiB (24%)
    Alignment                        : Split accross interleaves
    Interleave, duration             : 33 ms (1.00 video frame)
    Interleave, preload duration     : 500 ms
    
    
    


    Sample[/COLOR][/SIZE]


    Credits to:

    Ripper..........Cheema
    Source...........DVD9 Cheema







    Code:
    http://rapidshare.com/files/286436348/Hum.Dil.De.Chuke.Sanam._1999_-1CD-OrignaL.DVDRip_KoM_.avi.001
    http://rapidshare.com/files/286434881/Hum.Dil.De.Chuke.Sanam._1999_-1CD-OrignaL.DVDRip_KoM_.avi.002
    http://rapidshare.com/files/286436326/Hum.Dil.De.Chuke.Sanam._1999_-1CD-OrignaL.DVDRip_KoM_.avi.003
    http://rapidshare.com/files/286435403/Hum.Dil.De.Chuke.Sanam._1999_-1CD-OrignaL.DVDRip_KoM_.avi.004




    Code:
    http://www.easy-share.com/1907322145/Hum Dil De Chuke Sanam (1999) - 1CD-OrignaL DVDRip - [kingofmoviesandmusic].avi.001
    http://www.easy-share.com/1907322149/Hum Dil De Chuke Sanam (1999) - 1CD-OrignaL DVDRip - [kingofmoviesandmusic].avi.002
    http://www.easy-share.com/1907322153/Hum Dil De Chuke Sanam (1999) - 1CD-OrignaL DVDRip - [kingofmoviesandmusic].avi.003
    http://www.easy-share.com/1907322166/Hum Dil De Chuke Sanam (1999) - 1CD-OrignaL DVDRip - [kingofmoviesandmusic].avi.004


    Code:
    http://www.filefactory.com/file/a0c8d43/n/Hum_Dil_De_Chuke_Sanam_1999_-1CD-OrignaL_DVDRip_KoM_avi_001
    http://www.filefactory.com/file/a0c8d42/n/Hum_Dil_De_Chuke_Sanam_1999_-1CD-OrignaL_DVDRip_KoM_avi_002
    http://www.filefactory.com/file/a0c8d4h/n/Hum_Dil_De_Chuke_Sanam_1999_-1CD-OrignaL_DVDRip_KoM_avi_003
    http://www.filefactory.com/file/a0c8d35/n/Hum_Dil_De_Chuke_Sanam_1999_-1CD-OrignaL_DVDRip_KoM_avi_004


    Code:
     
    
    http://depositfiles.com/files/yc6srxo4u
    http://depositfiles.com/files/azm72qplv
    http://depositfiles.com/files/lonrn8bvu
    http://depositfiles.com/files/ovr7wxicr
    Use HjSplit to Join the above files.
    Code:
    http://www.easy-share.com/1907468224/hjsplit.exe

  12. #12
    dR Contributor www.desirulez.net
    Join Date
    Sep 2009
    Posts
    305

    T

    Default





    Baazigar.1993 Supar Hit Bollywood Movie | 1CD | OrignalDvdRip | X264 | KoM









    *Click To Enlarg*






















    Code:
    .. K i n g o f M o v i e   ..   P r a u d l e y p r e g a n t s ..
    
    	
    Movie Details
    Genre: Thriller / Crime / Drama
    Language: Hindi
    Running Time : 2 hrs. 55 mins.
    Release date and status: Released in 1993.
    
    Director: Abbas Alibhai Burmawalla , Mastan Alibhai Burmawalla
    Producer: Ganesh Jain
    Written by: Robin Bhatt , Akash Khurana , Javed Siddiqui
    Cinematographer: Thomas A. Xavier
    
    
    
    Kajol	        ... 	        Priya M. Chopra
    Sushant Ray	... 	Inspector Karan (as Siddharth)
    Shilpa Shetty	... 	Seema M. Chopra
    Dalip Tahil	... 	Madan Chopra
    Johnny Lever	... 	Babulal - Head Servant
    Rakhee Gulzar	... 	Shobha V. Sharma
    Anant Mahadevan	... 	Vishwanath Sharma (Ajay's father)
    Krish Mallik	... 	Ravi Shukla (as Krish Malik)
    Dinesh Hingoo	... 	Seth Bajodia
    Adi Irani	... 	Vicky Malhotra
    Resham Tipnis	... 	Anjali Sinha
    Amrit Patel	... 	Chopra's Chauffeur (as Amrut Patel)
    Sumeet Pathak	... 	Young Ajay (as Master Sumeet)
    
    Shahrukh Khan	... 	Ajay Sharma / Vicky Malhotra
    Manmauji	... 	Taaliao 
    
    
    CLICK HERE FOR MOVIE INFO
    
    RIP INFO:
     General
    Complete name                    : E: Baazigar.1993.1CD X264 OrignaL DVDRip by [KoM].mkv
    Format                           : Matroska
    File size                        : 700 MiB
    Duration                         : 3h 1mn
    Overall bit rate                 : 540 Kbps
    Encoded date                     : UTC 2009-07-10 14:44:12
    Writing application              : mkvmerge v2.9.7 ('Tenderness') built on Jul  1 2009 18:43:35
    Writing library                  : libebml v0.7.7 + libmatroska v0.8.1
    
    Video
    ID                               : 1
    Format                           : AVC
    Format/Info                      : Advanced Video Codec
    Format profile                   : [email protected]
    Format settings, CABAC           : Yes
    Format settings, ReFrames        : 3 frames
    Muxing mode                      : Container [email protected]
    Codec ID                         : V_MPEG4/ISO/AVC
    Duration                         : 3h 1mn
    Nominal bit rate                 : 474 Kbps
    Width                            : 720 pixels
    Height                           : 352 pixels
    Display aspect ratio             : 2.045
    Frame rate                       : 23.976 fps
    Resolution                       : 24 bits
    Colorimetry                      : 4:2:0
    Scan type                        : Progressive
    Bits/(Pixel*Frame)               : 0.078
    Writing library                  : x264 core 68 r1179M 96e2229
    
    
    Audio
    ID                               : 2
    Format                           : AAC
    Format/Info                      : Advanced Audio Codec
    Format version                   : Version 4
    Format profile                   : LC
    Format settings, SBR             : Yes
    Format settings, PS              : No
    Codec ID                         : A_AAC
    Duration                         : 3h 1mn
    Channel(s)                       : 2 channels
    Channel positions                : L R
    Sampling rate                    : 44.1 KHz
    Resolution                       : 16 bits
    

    Code:
    200Mb Links
    
    http://www.easy-share.com/1907160040/Baazigar.1993.1CD X264 OrignaL DVDRip by [KoM].mkv.001
    http://www.easy-share.com/1907160052/Baazigar.1993.1CD X264 OrignaL DVDRip by [KoM].mkv.002
    http://www.easy-share.com/1907160065/Baazigar.1993.1CD X264 OrignaL DVDRip by [KoM].mkv.003
    http://www.easy-share.com/1907160067/Baazigar.1993.1CD X264 OrignaL DVDRip by [KoM].mkv.004
    Use HjSplit to Join the above files.
    Code:
    http://www.easy-share.com/1906822920/hjsplit.exe

  13. #13
    dR Contributor www.desirulez.net
    Join Date
    Sep 2009
    Posts
    305

    T

    Default





    Deewar.1975 Supar Hit Bollywood Movie | 1CD | OrignalDvdRip | X264 | KoM








    By kingofmovie


    *Click To Enlarg*





    Banner
    N Chandra Global Infotainment Ltd
    Pen India Pvt. Ltd

    Status
    Released

    Color
    C

    Release Date
    August 28, 2009

    Language
    Hindi

    Genre
    Social / Drama

    Producer
    N Chandra
    Dhaval Gada

    Director
    N Chandra

    Star Cast
    Anupam Kher
    Atul Kulkarni
    Milind Gunaji
    Perizaad Zorabian
    Purab Kohli
    Smily Suri
    Parvin Dabbas
    Rajit Kapoor
    Rajpal Yadav
    Sarika
    Sayaji Shinde
    Seema Biswas
    Vijay Raaz
    Ashwin Mushran...... Amarjit Singh
    Virendra Saxena
    Ehsaan Khan

    Cassettes and CD's on
    Pen Audio

    Singers
    Zubeen Garg
    Kavita Seth

    Lyricist
    N Chandra
    Charanjit Charan
    Aasrif Dehlvi
    Kavita Seth

    Music Director
    Suhas
    Siddharth
    Kavita Seth

    Background Music
    Ranjit Barot

    Cinematography
    Matthew Boyd

    Action
    Allan Amin

    Editor
    N Chandra

    Screenplay
    N Chandra

    Story / Writer
    N Chandra






    s














    Code:
    .. K i n g o f M o v i e   ..   P r a u d l e y p r e g a n t s ..
    
    Format : Matroska
    File size : 666 MiB
    Duration : 2h 39mn
    Overall bit rate : 583 Kbps
    
    Video
    Format : AVC
    Nominal bit rate : 533 Kbps
    Width : 608 pixels
    Height : 448 pixels
    Frame rate : 29.970 fps
    
    Audio
    Format : AAC
    Channel(s) : 2 channels
    Channel positions : L R
     
    
    
    
    Credit To Orignal Ripper = MM[TDBB]





    Code:
    http://rapidshare.com/files/290674441/Deewar.1975.OrignaL.DvDRip._KoM_.mkv.001
    http://rapidshare.com/files/290675781/Deewar.1975.OrignaL.DvDRip._KoM_.mkv.002
    http://rapidshare.com/files/290674304/Deewar.1975.OrignaL.DvDRip._KoM_.mkv.003
    http://rapidshare.com/files/290673104/Deewar.1975.OrignaL.DvDRip._KoM_.mkv.004
    http://rapidshare.com/files/290672802/Deewar.1975.OrignaL.DvDRip._KoM_.mkv.005
    http://rapidshare.com/files/290673337/Deewar.1975.OrignaL.DvDRip._KoM_.mkv.006
    
    
    http://rapidshare.com/files/290671146/Deewar.1975.OrignaL.DvDRip._KoM_.mkv.srt


    Code:
    http://www.easy-share.com/1908067811/Deewar.1975.OrignaL.DvDRip.[KoM].mkv.002
    http://www.easy-share.com/1908067810/Deewar.1975.OrignaL.DvDRip.[KoM].mkv.001
    http://www.easy-share.com/1908067814/Deewar.1975.OrignaL.DvDRip.[KoM].mkv.004
    http://www.easy-share.com/1908067815/Deewar.1975.OrignaL.DvDRip.[KoM].mkv.003
    http://www.easy-share.com/1908067817/Deewar.1975.OrignaL.DvDRip.[KoM].mkv.006
    http://www.easy-share.com/1908067819/Deewar.1975.OrignaL.DvDRip.[KoM].mkv.005
    
    http://www.easy-share.com/1908067818/Deewar.1975.OrignaL.DvDRip.[KoM].mkv.srt


    Code:
    http://www.filefactory.com/file/a0f5522/n/Deewar_1975_OrignaL_DvDRip_KoM_mkv_001
    http://www.filefactory.com/file/a0f553f/n/Deewar_1975_OrignaL_DvDRip_KoM_mkv_002
    http://www.filefactory.com/file/a0f555f/n/Deewar_1975_OrignaL_DvDRip_KoM_mkv_003
    http://www.filefactory.com/file/a0f554h/n/Deewar_1975_OrignaL_DvDRip_KoM_mkv_004
    http://www.filefactory.com/file/a0f552c/n/Deewar_1975_OrignaL_DvDRip_KoM_mkv_005
    http://www.filefactory.com/file/a0f5512/n/Deewar_1975_OrignaL_DvDRip_KoM_mkv_006
    
    
    http://www.filefactory.com/file/a0f5506/n/Deewar_1975_OrignaL_DvDRip_KoM_mkv_srt



    Code:
    http://www.storage.to/get/aJmUaKRg/Deewar.1975.OrignaL.DvDRip.%5bKoM%5d.mkv.006
    http://www.storage.to/get/znEVGwHO/Deewar.1975.OrignaL.DvDRip.%5bKoM%5d.mkv.005
    http://www.storage.to/get/abXu11FC/Deewar.1975.OrignaL.DvDRip.%5bKoM%5d.mkv.004
    http://www.storage.to/get/53ftEwtq/Deewar.1975.OrignaL.DvDRip.%5bKoM%5d.mkv.003
    http://www.storage.to/get/WSZPDHo7/Deewar.1975.OrignaL.DvDRip.%5bKoM%5d.mkv.002
    http://www.storage.to/get/wX2RaApR/Deewar.1975.OrignaL.DvDRip.%5bKoM%5d.mkv.001
    
    
    
    http://www.storage.to/get/p35lV3Rx/Deewar.1975.OrignaL.DvDRip.%5bKoM%5d.mkv.srt





    Use HjSplit to Join the above files.
    Code:
    http://www.easy-share.com/1906822920/hjsplit.exe

  14. #14
    dR Contributor www.desirulez.net
    Join Date
    Sep 2009
    Posts
    305

    T

    Default





    The Legend of Bhagat Singh .2002 Supar Hit Bollywood Movie | 1CD | OrignalDvdRip | XviD | KoM







    By kingofmovie




    *Click To Enlarg*





    Banner
    Tips Music Films

    Status
    Released

    Color
    C

    Release Date
    June 7, 2002

    Genre

    Producer
    Kumar S Taurani
    Ramesh S Taurani

    Executive Producer / Co-Producer
    Kumar S Taurani
    Ramesh S Taurani

    Director
    Rajkumar Santoshi

    Star Cast
    Ajay Devgan...... Bhagat Singh
    Raj Babbar...... Kishen Singh
    Farida Jalal...... Vidyavati
    Akhilendra Mishra...... Chandrashekhar Azad
    Sushant Singh...... Sukhdev
    D Santosh...... Rajguru
    Amrita Rao...... Mannewali
    Mukesh Tiwari...... Jailor
    Abir Goswami...... Phoindranath
    Ganesh Yadav...... Ram Prasad Bismil
    Sardar Sohi...... Leader in Jallianwala
    Lalit Tiwari...... Prof. Vidyalankar
    Shehzad Khan...... Khairu
    Kapil Sharma...... Shiv Verma
    Surendra Rajan...... Mahatma Gandhi
    Kiran Randhawa...... Police Officer
    Padam Singh...... Roshan Singh
    Ashok Sharma...... Rajendra Lahiri
    Ankush...... Kulbir Singh
    Anita...... Choti Chachi
    Viju Khote...... Sp. Appearance

    Cassettes and CD's on
    Tips Music Films

    Background Music
    A R Rahman

    Cinematography
    K V Anand

    Choreography
    Ganesh Acharya

    Art
    Nitin Chandrakant Desai

    Editor
    V N Mayekar

    Screenplay
    Piyush Mishra

    Dialogue
    Rajkumar Santoshi





















    Code:
    .. K i n g o f M o v i e   ..   P r a u d l e y p r e g a n t s ..
    
    
    
     
    



    Credit To Orignal Ripper = garrysingh07-TDBB











    Sample[/COLOR][/SIZE]




    Code:
    http://rapidshare.com/files/291252306/The.Legend.of.Bhagat.Singh.2002.1CD.OrignalDvdRip.Kom.avi.001
    http://rapidshare.com/files/291252237/The.Legend.of.Bhagat.Singh.2002.1CD.OrignalDvdRip.Kom.avi.002
    http://rapidshare.com/files/291249748/The.Legend.of.Bhagat.Singh.2002.1CD.OrignalDvdRip.Kom.avi.003
    http://rapidshare.com/files/291251022/The.Legend.of.Bhagat.Singh.2002.1CD.OrignalDvdRip.Kom.avi.004
    http://rapidshare.com/files/291249546/The.Legend.of.Bhagat.Singh.2002.1CD.OrignalDvdRip.Kom.avi.005
    http://rapidshare.com/files/291249332/The.Legend.of.Bhagat.Singh.2002.1CD.OrignalDvdRip.Kom.avi.006




    Code:
    http://www.easy-share.com/1908082671/The.Legend.of.Bhagat.Singh.2002.1CD.OrignalDvdRip.Kom.avi.002
    http://www.easy-share.com/1908082670/The.Legend.of.Bhagat.Singh.2002.1CD.OrignalDvdRip.Kom.avi.001
    http://www.easy-share.com/1908082678/The.Legend.of.Bhagat.Singh.2002.1CD.OrignalDvdRip.Kom.avi.004
    http://www.easy-share.com/1908082677/The.Legend.of.Bhagat.Singh.2002.1CD.OrignalDvdRip.Kom.avi.003
    http://www.easy-share.com/1908082695/The.Legend.of.Bhagat.Singh.2002.1CD.OrignalDvdRip.Kom.avi.006
    http://www.easy-share.com/1908082696/The.Legend.of.Bhagat.Singh.2002.1CD.OrignalDvdRip.Kom.avi.005


    Code:
    http://www.filefactory.com/file/a0gdefb/n/The_Legend_of_Bhagat_Singh_2002_1CD_OrignalDvdRip_Kom_avi_001
    http://www.filefactory.com/file/a0gdd6g/n/The_Legend_of_Bhagat_Singh_2002_1CD_OrignalDvdRip_Kom_avi_002
    http://www.filefactory.com/file/a0gdda0/n/The_Legend_of_Bhagat_Singh_2002_1CD_OrignalDvdRip_Kom_avi_003
    http://www.filefactory.com/file/a0gddh8/n/The_Legend_of_Bhagat_Singh_2002_1CD_OrignalDvdRip_Kom_avi_004
    http://www.filefactory.com/file/a0gddbd/n/The_Legend_of_Bhagat_Singh_2002_1CD_OrignalDvdRip_Kom_avi_005
    http://www.filefactory.com/file/a0gdd68/n/The_Legend_of_Bhagat_Singh_2002_1CD_OrignalDvdRip_Kom_avi_006






    Use HjSplit to Join the above files.
    Code:
    http://www.easy-share.com/1906822920/hjsplit.exe

  15. #15
    dR Contributor www.desirulez.net
    Join Date
    Sep 2009
    Posts
    305

    T

    Default






    Judwaa 1997 Supar Hit Bollywood Movie | 1CD | OrignalDvdRip | XviD | KoM |RS-ES-ST











    Banner
    Nadiadwala Grandson Entertainment

    Status
    Released

    Color
    C

    Release Date
    February 7, 1997

    Language
    Hindi

    Genre
    Action / Comedy / Drama / Romance

    Producer
    Sajid Nadiadwala

    Director
    David Dhawan

    Star Cast
    Salman Khan...... Raja/Prem Malhotra
    Karisma Kapoor...... Mala
    Rambha...... Roopa
    Bindu...... Sindhi woman
    Kader Khan...... Sharma
    Shakti Kapoor...... Rangeela
    Satish Shah...... Havaldar/Inspector
    Dinesh Hingoo
    Jack Gaud
    Reema Lagoo...... Prem's mom
    Mukesh Rishi...... Ratanlal Tiger
    Shashi Kiran
    Dalip Tahil...... Bharosa Malhotra
    Tiku Talsania...... Sharma's Brother-in-law
    Mohan Joshi
    Anupam Kher...... Inspector/Havaldar Vidyarthi

    Cassettes and CD's on
    Venus Records & Tapes

    Singers
    Kumar Sanu
    Kavita Krishnamurthy
    Anu Malik
    Poornima
    Abhijeet

    Lyricist
    Dev Kohli

    Music Director
    Anu Malik

    Cinematography
    W B Rao

    Story / Writer
    E V V Satyanarayana











    By kingofmovie

    By kingofmovie

    By kingofmovie

    By kingofmovie

    By kingofmovie

    By kingofmovie

    By kingofmovie

    By kingofmovie

    By kingofmovie

    By kingofmovie

    By kingofmovie

    By kingofmovie





    Code:
    .. K i n g o f M o v i e   ..   P r a u d l e y p r e g a n t s ..
    
    
    
    TYPE:- AVI VIDEO
    SIZE:- 700MB
    MEDIA LENGTH :- 02:16:25
    Video: MPEG4 Video (H264) 608x272 23.98fps [Video]
    Audio: AAC 24000Hz stereo 768Kbps [Audio]
    
    http://www.imdb.com/title/tt0119428/
    
    
    
    .
    Ripped By - richanindya










    Code:
    http://rapidshare.com/files/289802891/Judwaa-1997-1CD-OrignaLDVDRip-XviDKoM.avi.001
    http://rapidshare.com/files/289803889/Judwaa-1997-1CD-OrignaLDVDRip-XviDKoM.avi.002
    http://rapidshare.com/files/289802060/Judwaa-1997-1CD-OrignaLDVDRip-XviDKoM.avi.003
    http://rapidshare.com/files/289800893/Judwaa-1997-1CD-OrignaLDVDRip-XviDKoM.avi.004
    http://rapidshare.com/files/289802742/Judwaa-1997-1CD-OrignaLDVDRip-XviDKoM.avi.005





    Code:
    http://www.easy-share.com/1908048726/Judwaa-1997-1CD-OrignaLDVDRip-XviDKoM.avi.001
    http://www.easy-share.com/1908048722/Judwaa-1997-1CD-OrignaLDVDRip-XviDKoM.avi.002
    http://www.easy-share.com/1908048730/Judwaa-1997-1CD-OrignaLDVDRip-XviDKoM.avi.003
    http://www.easy-share.com/1908048731/Judwaa-1997-1CD-OrignaLDVDRip-XviDKoM.avi.004
    http://www.easy-share.com/1908048738/Judwaa-1997-1CD-OrignaLDVDRip-XviDKoM.avi.005




    Code:
     
    http://www.storage.to/get/bvn1VVIc/Judwaa-1997-1CD-OrignaLDVDRip-XviDKoM.avi.005
    http://www.storage.to/get/LOrYpvvK/Judwaa-1997-1CD-OrignaLDVDRip-XviDKoM.avi.004
    http://www.storage.to/get/Q4ZOcR5o/Judwaa-1997-1CD-OrignaLDVDRip-XviDKoM.avi.003
    http://www.storage.to/get/K4qDn2D2/Judwaa-1997-1CD-OrignaLDVDRip-XviDKoM.avi.002
    http://www.storage.to/get/J5U00ft4/Judwaa-1997-1CD-OrignaLDVDRip-XviDKoM.avi.001
    Use HjSplit to Join the above files.
    Code:
    http://www.easy-share.com/1907468224/hjsplit.exe


  16. #16
    dR Contributor www.desirulez.net
    Join Date
    Sep 2009
    Posts
    305

    T

    Default






    Maine Pyar Kiya 1989 Supar Hit Bollywood Movie | 1CD | OrignalDvdRip | X264 | KoM |RS-ES-FF










    By kingofmovie






    Status
    Released

    Color
    C

    Release Date
    December 29, 1989

    Genre
    Romance / Family Drama / Musical

    Producer
    Tarachand Barjatya

    Director
    Sooraj Barjatya

    Star Cast
    Salman Khan...... Prem Choudhary
    Bhagyashree...... Suman
    Alok Nath...... Karan (as Aloknath)
    Mohnish Behl...... Jeevan
    Reema Lagoo...... Kaushalya Choudhary (as Rima Lagoo)
    Laxmikant Berde...... Manohar
    Rajeev Varma...... Kishen Kumar Choudhary (as Rajiv Verma)
    Ajit Vachchani...... Ranjeet (as Ajit Vachhani)
    Harish Patel...... Rahim chacha
    Deep Dhillon...... Laal Miyan
    Huma Khan...... Gulabiya (Milk delivery maid)
    Dilip Joshi...... Ramu
    Parveen Dastu...... Seema
    Rakesh Shrivastav
    Sushil Johri
    Bhagwan...... Cameo appearance
    Shekhar
    Raju Shrivastava...... Shambu
    Chhaya

    Cassettes and CD's on
    Saregama-HMV

    Singers
    Lata Mangeshkar
    S.P.Balasubramaniam
    Usha Mangeshkar
    Shailendra Singh

    Lyricist
    Dev Kohli
    Assad Bhopali

    Music Director
    Ram Lakshman

    Choreography
    Jay Borade

    Action
    Shamim Azim

    Art
    Bijon Das Gupta

    Editor
    Mukhtar Ahmed

    Screenplay
    Sooraj Barjatya

    Dialogue
    Sooraj Barjatya

    Costume
    Anna Singh











    By kingofmovie

    By kingofmovie

    By kingofmovie

    By kingofmovie

    By kingofmovie

    By kingofmovie

    By kingofmovie








    Code:
    .. K i n g o f M o v i e   ..   P r a u d l e y p r e g a n t s ..
    
    General
    Complete name                    : C: Maine Pyar Kiya 1989  1CD OrignalDvdRip X264 [KoM].mkv
    Format                           : Matroska
    File size                        : 684 MiB
    Duration                         : 3h 4mn
    Overall bit rate                 : 517 Kbps
    Source                         : Mosaerbaer DVD
    
    Video
    ID                               : 1
    Format                           : AVC
    Format/Info                      : Advanced Video Codec
    Format profile                   : [email protected]
    Format settings, CABAC           : Yes
    Format settings, ReFrames        : 2 frames
    Muxing mode                      : Container [email protected]
    Codec ID                         : V_MPEG4/ISO/AVC
    Duration                         : 3h 4mn
    Nominal bit rate                 : 351 Kbps
    Width                            : 640 pixels
    Height                           : 320 pixels
    Display aspect ratio             : 2.000
    Frame rate                       : 23.976 fps
    Resolution                       : 24 bits
    Colorimetry                      : 4:2:0
    Scan type                        : Progressive
    Bits/(Pixel*Frame)               : 0.071
    Writing library                  : x264 core 65
    Encoding settings                : cabac=1 / ref=2 / deblock=1:0:0 / analyse=0x1:0x111 / me=umh / subme=6 / psy_rd=1.0:0.0 / mixed_ref=0 / me_range=16 / chroma_me=1 / trellis=0 / 8x8dct=0 / cqm=0 / deadzone=21,11 / chroma_qp_offset=-2 / threads=3 / nr=0 / decimate=1 / mbaff=0 / bframes=2 / b_pyramid=0 / b_adapt=1 / b_bias=0 / direct=1 / wpredb=0 / keyint=240 / keyint_min=24 / scenecut=40(pre) / rc=2pass / bitrate=351 / ratetol=1.0 / qcomp=0.60 / qpmin=10 / qpmax=51 / qpstep=4 / cplxblur=20.0 / qblur=0.5 / ip_ratio=1.40 / pb_ratio=1.30 / aq=1:1.00
    
    Audio
    ID                               : 2
    Format                           : AAC
    Format/Info                      : Advanced Audio Codec
    Format version                   : Version 4
    Format profile                   : LC
    Format settings, SBR             : No
    Codec ID                         : A_AAC
    Duration                         : 3h 4mn
    Channel(s)                       : 2 channels
    Channel positions                : L R
    Sampling rate                    : 48.0 KHz
    Resolution                       : 16 bits
    
    
    
    .
    Credit To Orignal Ripper - Namele$$









    SAMPLE




    Code:
    http://rapidshare.com/files/292605663/Maine.Pyar.Kiya.1989.1CD.OrignalDvdRip.X264.KoM.mkv.001
    http://rapidshare.com/files/292605416/Maine.Pyar.Kiya.1989.1CD.OrignalDvdRip.X264.KoM.mkv.002
    http://rapidshare.com/files/292609014/Maine.Pyar.Kiya.1989.1CD.OrignalDvdRip.X264.KoM.mkv.003
    http://rapidshare.com/files/292607856/Maine.Pyar.Kiya.1989.1CD.OrignalDvdRip.X264.KoM.mkv.004
    http://rapidshare.com/files/292606203/Maine.Pyar.Kiya.1989.1CD.OrignalDvdRip.X264.KoM.mkv.005
    http://rapidshare.com/files/292605126/Maine.Pyar.Kiya.1989.1CD.OrignalDvdRip.X264.KoM.mkv.006





    Code:
    http://www.easy-share.com/1908117377/Maine.Pyar.Kiya.1989.1CD.OrignalDvdRip.X264.KoM.mkv.001
    http://www.easy-share.com/1908117379/Maine.Pyar.Kiya.1989.1CD.OrignalDvdRip.X264.KoM.mkv.002
    http://www.easy-share.com/1908117386/Maine.Pyar.Kiya.1989.1CD.OrignalDvdRip.X264.KoM.mkv.004
    http://www.easy-share.com/1908117385/Maine.Pyar.Kiya.1989.1CD.OrignalDvdRip.X264.KoM.mkv.003
    http://www.easy-share.com/1908117391/Maine.Pyar.Kiya.1989.1CD.OrignalDvdRip.X264.KoM.mkv.006
    http://www.easy-share.com/1908117392/Maine.Pyar.Kiya.1989.1CD.OrignalDvdRip.X264.KoM.mkv.005




    Code:
    http://www.filefactory.com/file/a0g9661/n/Maine_Pyar_Kiya_1989_1CD_OrignalDvdRip_X264_KoM_mkv_001
    http://www.filefactory.com/file/a0g95g3/n/Maine_Pyar_Kiya_1989_1CD_OrignalDvdRip_X264_KoM_mkv_002
    http://www.filefactory.com/file/a0g96hc/n/Maine_Pyar_Kiya_1989_1CD_OrignalDvdRip_X264_KoM_mkv_003
    http://www.filefactory.com/file/a0g959b/n/Maine_Pyar_Kiya_1989_1CD_OrignalDvdRip_X264_KoM_mkv_004
    http://www.filefactory.com/file/a0g96hd/n/Maine_Pyar_Kiya_1989_1CD_OrignalDvdRip_X264_KoM_mkv_005
    http://www.filefactory.com/file/a0g96a9/n/Maine_Pyar_Kiya_1989_1CD_OrignalDvdRip_X264_KoM_mkv_006


    Use HjSplit to Join the above files.
    Code:
    http://www.easy-share.com/1907468224/hjsplit.exe


  17. #17
    dR Contributor www.desirulez.net
    Join Date
    Sep 2009
    Posts
    305

    T

    Default





    Border.1997 Supar Hit Bollywood Movie | 1CD | OrignalDvdRip | Mkv | KoM |RS-ES-SS








    By kingofmovie





    Status
    Banner
    J P Films

    Status
    Released

    Color
    C

    Release Date
    June 13, 1997

    Language
    Hindi

    Genre
    Action / War / Drama

    Producer
    J P Dutta

    Director
    J P Dutta

    Star Cast
    Sunny Deol...... Major Kuldeep Singh
    Jackie Shroff...... Air Force Commander
    Sunil Shetty...... Captain Bhairav Singh (Raja)
    Akshaye Khanna...... Dharamvir
    Pooja Bhatt...... Kanu
    Tabu...... Kuldeep's wife
    Rakhee...... Dharamvir's mother
    Kulbhushan Kharbanda...... Bhagiram (Cook)
    Sudesh Berry...... (as Sudhesh Berry)
    Puneet Issar...... Rattan Singh
    Rajeev Goswami
    Sapna Bedi
    Amrit Pal
    Sanjeeva
    Ranjeet
    Sharbani Mukherjee...... Raja Bhairav Singh's wife
    Pardesi
    Deepak Bhatia
    Ashokan

    Cassettes and CD's on
    Venus Records & Tapes

    Singers
    Sonu Nigam
    Alka Yagnik
    Shankar Mahadevan
    Sonali Rathod
    Roop Kumar Rathod
    Hariharan

    Lyricist
    Javed Akhtar

    Music Director
    Anu Malik

    Background Music
    Aadesh Shrivastav

    Cinematography
    Ishwar R Bidri
    Nirmal Jani

    Choreography
    Farah Khan

    Action
    Bhiku Verma
    Mahesh Kumar
    Tinu Verma

    Art
    Ratnakar Phadke

    Editor
    Deepak Wirkud

    Screenplay
    J P Dutta

    Sound
    Abhijeet

    Dialogue
    O P Dutta

    Costume
    Anna Singh

    Publicity Designs
    Singhal's













    By kingofmovie

    By kingofmovie

    By kingofmovie

    By kingofmovie

    By kingofmovie

    By kingofmovie

    By kingofmovie









    Code:
    .. K i n g o f M o v i e   ..   P r a u d l e y p r e g a n t s ..
    General
    Complete name                    : E:Border.1997 1CD OrignalDvdRip Mkv [KoM].mkv
    Format                           : Matroska
    File size                        : 675 MiB
    Duration                         : 2h 57mn
    Overall bit rate                 : 530 Kbps
    Encoded date                     : UTC 2009-10-11 01:59:01
    Writing application              : gdsmux
    Writing library                  : Haali DirectShow Matroska Muxer 1.8.122.18
    
    Video
    ID                               : 1
    Format                           : MPEG-4 Visual
    Format profile                   : Streaming [email protected]
    Format settings, BVOP            : Yes
    Format settings, QPel            : No
    Format settings, GMC             : No warppoints
    Format settings, Matrix          : Default
    Codec ID                         : V_MPEG4/ISO/ASP
    Codec ID/Info                    : Advanced Simple Profile
    Duration                         : 2h 57mn
    Bit rate                         : 399 Kbps
    Width                            : 720 pixels
    Height                           : 384 pixels
    Display aspect ratio             : 1.875
    Frame rate                       : 23.976 fps
    Resolution                       : 24 bits
    Colorimetry                      : 4:2:0
    Scan type                        : Progressive
    Bits/(Pixel*Frame)               : 0.060
    Writing library                  : XviD 1.2.1 (UTC 2008-12-04)
    
    Audio
    ID                               : 2
    Format                           : MPEG Audio
    Format version                   : Version 1
    Format profile                   : Layer 3
    Codec ID                         : A_MPEG/L2
    Codec ID/Hint                    : MP2
    Duration                         : 2h 57mn
    Bit rate mode                    : Variable
    Bit rate                         : 102 Kbps
    Minimum bit rate                 : 112 Kbps
    Channel(s)                       : 2 channels
    Sampling rate                    : 44.1 KHz
    Resolution                       : 16 bits
    Writing library                  : LAME3.98r
    Encoding settings                : ABR
    Language                         : English
    
    
    
    

    Credit To Orignal Ripper - ANMOL VERMA








    SAMPLE






    Code:
    http://rapidshare.com/files/292609656/Border.1997.1CD.OrignalDvdRip.Mkv.KoM.mkv.001
    http://rapidshare.com/files/292607390/Border.1997.1CD.OrignalDvdRip.Mkv.KoM.mkv.002
    http://rapidshare.com/files/292606816/Border.1997.1CD.OrignalDvdRip.Mkv.KoM.mkv.003
    http://rapidshare.com/files/292606764/Border.1997.1CD.OrignalDvdRip.Mkv.KoM.mkv.004
    http://rapidshare.com/files/292605947/Border.1997.1CD.OrignalDvdRip.Mkv.KoM.mkv.005
    http://rapidshare.com/files/292606805/Border.1997.1CD.OrignalDvdRip.Mkv.KoM.mkv.006





    Code:
    http://www.easy-share.com/1908117319/Border.1997.1CD.OrignalDvdRip.Mkv.KoM.mkv.001
    http://www.easy-share.com/1908117320/Border.1997.1CD.OrignalDvdRip.Mkv.KoM.mkv.002
    http://www.easy-share.com/1908117331/Border.1997.1CD.OrignalDvdRip.Mkv.KoM.mkv.003
    http://www.easy-share.com/1908117334/Border.1997.1CD.OrignalDvdRip.Mkv.KoM.mkv.004
    http://www.easy-share.com/1908117337/Border.1997.1CD.OrignalDvdRip.Mkv.KoM.mkv.006
    http://www.easy-share.com/1908117339/Border.1997.1CD.OrignalDvdRip.Mkv.KoM.mkv.005




    Code:
    http://www.filefactory.com/file/a0g940b/n/Border_1997_1CD_OrignalDvdRip_Mkv_KoM_mkv_001
    http://www.filefactory.com/file/a0g9453/n/Border_1997_1CD_OrignalDvdRip_Mkv_KoM_mkv_002
    http://www.filefactory.com/file/a0g9431/n/Border_1997_1CD_OrignalDvdRip_Mkv_KoM_mkv_003
    http://www.filefactory.com/file/a200741/n/Border_1997_1CD_OrignalDvdRip_Mkv_KoM_mkv_004
    http://www.filefactory.com/file/a0g949d/n/Border_1997_1CD_OrignalDvdRip_Mkv_KoM_mkv_005
    http://www.filefactory.com/file/a1e1917/n/Border_1997_1CD_OrignalDvdRip_Mkv_KoM_mkv_006


    Use HjSplit to Join the above files.
    Code:
    http://www.easy-share.com/1907468224/hjsplit.exe


  18. #18
    dR Contributor www.desirulez.net
    Join Date
    Sep 2009
    Posts
    305

    T

    Default





    Dilwale Dulhania Le Jayenge.1995 Supar Hit Bollywood Movie | 1CD | OrignalDvdRip | X264 | ACC | KoM |RS-ES-FF









    By kingofmovie






    Status
    Also known as (AKA) / Was earlier titled
    DDLJ

    Banner
    Yash Raj Films

    Status
    Released

    Color
    C

    Release Date
    October 20, 1995

    Language
    Hindi

    Genre
    Comedy / Musical / Drama / Romance / Family Drama

    Shooting Locations (City & Country)
    London (United Kingdom)
    Switzerland
    United Kingdom

    Producer
    Yash Chopra

    Executive Producer / Co-Producer
    Pamela Chopra
    Uday Chopra

    Director
    Aditya Chopra

    Star Cast
    Shahrukh Khan...... Raj Malhotra
    Kajol...... Simran Singh
    Parmeet Sethi...... Kuljeet
    Satish Shah...... Ajit Singh
    Amrish Puri...... Chaudhry Baldev Singh
    Farida Jalal...... Lajwanti
    Anupam Kher...... Dharamvir Malhotra
    Mandira Bedi...... Preeti Singh
    Achla Sachdev...... Simran's Grandmother
    Himani Shivpuri...... Simran's Aunt
    Karan Johar...... Rocky, Raj's friend
    Arjun Sablok...... Roby, Raj's friend
    Pooja Ruparel...... Rajeshwari/Chutki
    Lalit Tiwari...... Simran's Uncle
    Hemlata...... Simran's friend
    Anita...... Sheena, Simran's friend
    Pallavi

    Cassettes and CD's on
    Saregama-HMV

    Singers
    Pamela Chopra
    Manjeet Kaur
    Udit Narayan
    Lata Mangeshkar
    Kumar Sanu
    Asha Bhosle
    Abhijeet

    Lyricist
    Anand Bakshi

    Music Director
    Jatin Pandit
    Lalit Pandit

    Cinematography
    Manmohan Singh

    Choreography
    Farah Khan
    Saroj Khan

    Art
    Sharmishta Roy

    Editor
    Keshav Naidu

    Screenplay
    Aditya Chopra

    Dialogue
    Javed Siddiqi

    Publicity Designs
    HR Enterprises











    By kingofmovie

    By kingofmovie

    By kingofmovie

    By kingofmovie

    By kingofmovie

    By kingofmovie

    By kingofmovie

    By kingofmovie

    By kingofmovie

    By kingofmovie







    Code:
    .. K i n g o f M o v i e   ..   P r a u d l e y p r e g a n t s ..
    
    
    
    Gender..........: Comedy | Family | Musical | Romance 
    Year............: 1995
    
    Ripper..........: Maximous 
    Source..........: DVD 9 
    Container.......: MP4
    Rip Size........: 700 MB
    
    Resolution......: 592 x 256
    Runtime.........: 2hr 42min 45 Sec
    Audio Language..: Hindi
    Audio Format....: AAC - 32Kbps
    Subtutles.......: English
    Framerate.......: 23.976 Fps
    Video...........: X264 @ 570 Kbps
    
    
    

    Credit To Orignal Ripper - Maximous







    SAMPLE






    Code:
    http://rapidshare.com/files/292608566/Dilwale.Dulhania.Le.Jayenge.1995.1CD.DvdRip.X264.ACC.ESub.KoM.mp4.001
    http://rapidshare.com/files/292606770/Dilwale.Dulhania.Le.Jayenge.1995.1CD.DvdRip.X264.ACC.ESub.KoM.mp4.002
    http://rapidshare.com/files/292607034/Dilwale.Dulhania.Le.Jayenge.1995.1CD.DvdRip.X264.ACC.ESub.KoM.mp4.003
    http://rapidshare.com/files/292607739/Dilwale.Dulhania.Le.Jayenge.1995.1CD.DvdRip.X264.ACC.ESub.KoM.mp4.004
    http://rapidshare.com/files/292609267/Dilwale.Dulhania.Le.Jayenge.1995.1CD.DvdRip.X264.ACC.ESub.KoM.mp4.005
    http://rapidshare.com/files/292606252/Dilwale.Dulhania.Le.Jayenge.1995.1CD.DvdRip.X264.ACC.ESub.KoM.mp4.006





    Code:
    http://www.easy-share.com/1908117350/Dilwale.Dulhania.Le.Jayenge.1995.1CD.DvdRip.X264.ACC.ESub.KoM.mp4.001
    http://www.easy-share.com/1908117351/Dilwale.Dulhania.Le.Jayenge.1995.1CD.DvdRip.X264.ACC.ESub.KoM.mp4.002
    http://www.easy-share.com/1908117358/Dilwale.Dulhania.Le.Jayenge.1995.1CD.DvdRip.X264.ACC.ESub.KoM.mp4.003
    http://www.easy-share.com/1908117359/Dilwale.Dulhania.Le.Jayenge.1995.1CD.DvdRip.X264.ACC.ESub.KoM.mp4.004
    http://www.easy-share.com/1908117366/Dilwale.Dulhania.Le.Jayenge.1995.1CD.DvdRip.X264.ACC.ESub.KoM.mp4.005
    http://www.easy-share.com/1908117361/Dilwale.Dulhania.Le.Jayenge.1995.1CD.DvdRip.X264.ACC.ESub.KoM.mp4.006
    http://www.easy-share.com/1908117362/Dilwale.Dulhania.Le.Jayenge.1995.1CD.DvdRip.X264.ACC.ESub.KoM.srt




    Code:
    http://www.filefactory.com/file/a0g95c2/n/Dilwale_Dulhania_Le_Jayenge_1995_1CD_DvdRip_X264_ACC_ESub_KoM_mp4_001
    http://www.filefactory.com/file/a12914h/n/Dilwale_Dulhania_Le_Jayenge_1995_1CD_DvdRip_X264_ACC_ESub_KoM_mp4_002
    http://www.filefactory.com/file/a0g95ba/n/Dilwale_Dulhania_Le_Jayenge_1995_1CD_DvdRip_X264_ACC_ESub_KoM_mp4_003
    http://www.filefactory.com/file/a0g95ca/n/Dilwale_Dulhania_Le_Jayenge_1995_1CD_DvdRip_X264_ACC_ESub_KoM_mp4_004
    http://www.filefactory.com/file/a2g1c87/n/Dilwale_Dulhania_Le_Jayenge_1995_1CD_DvdRip_X264_ACC_ESub_KoM_mp4_005
    http://www.filefactory.com/file/a0g95d8/n/Dilwale_Dulhania_Le_Jayenge_1995_1CD_DvdRip_X264_ACC_ESub_KoM_mp4_006
    http://www.filefactory.com/file/a0g95d6/n/Dilwale_Dulhania_Le_Jayenge_1995_1CD_DvdRip_X264_ACC_ESub_KoM_srt


    Use HjSplit to Join the above files.
    Code:
    http://www.easy-share.com/1907468224/hjsplit.exe


  19. #19
    dR Contributor www.desirulez.net
    Join Date
    Sep 2009
    Posts
    305

    T

    Default





    Sarfarosh.1999 Supar Hit Bollywood Movie | 1CD | OrignalDvdRip | X264 | KoM |RS-ES-FF









    By kingofmovie









    Status
    Released

    Color
    C

    Release Date
    April 30, 1999

    Language
    Hindi

    Genre
    Action / Adventure

    Producer
    John Mathew Matthan

    Director
    John Mathew Matthan

    Star Cast
    Aamir Khan...... Ajay Singh Rathod
    Sonali Bendre...... Seema
    Naseruddin Shah...... Ghazal singer
    Mukesh Rishi...... INSP. Salim
    Smita Jaykar...... Ajay's Mother
    Akhilendra Mishra...... Mirchi Seth
    Govind Namdeo...... Veeran
    Akash Khurana...... Ajay's Father
    Ahmed Khan...... Haji
    Rajesh Joshi...... Thakur
    Ali Khan...... Shafi
    Manoj Joshi...... S.I. Bajju
    Sunil Rege...... Minister
    Rohit Raj...... Sec. To Minister
    Sunil Shinde...... D.C.P.
    Pradeep Rawat...... Sultan
    Makrand Deshpande...... Shiva
    Upasna Singh...... Mala (as Upasana Singh)
    Anil Upadhyay...... Fatka (as Anil Upadhaya)
    Surekha Sikri...... Sultan's Mother (special appearance)
    Ramdas Jadhav...... Chandrapur INSP
    Rajendra Mehra...... Ajay's Kaka
    Varun Vardhan...... Ajay's Brother
    Srivallabh Vyas
    Radhika...... Bar Dancer
    Pinky Chinoy...... Rajasthani Dancer
    Avantika Verma...... Bar Dancer

    Cassettes and CD's on
    Tips Music Films

    Singers
    Jagjit Singh
    Alka Yagnik
    Aamir Khan
    Kumar Sanu
    Kavita Krishnamurthy
    Roop Kumar Rathod
    Sonu Nigam

    Lyricist
    Nida Fazli
    Sameer
    Indeevar
    Israr Ansari

    Music Director
    Jatin Pandit
    Lalit Pandit

    Choreography
    Farah Khan
    Raju Khan
    Ahmed Khan

    Action
    Abbas Ali Moghul
    Hanif Khan

    Art
    Keshto Mondal

    Editor
    Jethu Mundul

    Screenplay
    John Mathew Matthan

    Dialogue
    Hridaylani

    Costume
    Ashley Rebello
    Lovleen Bains

    Media Relations
    Rajendra Rao

    Publicity Designs
    Studio Link

    Story / Writer
    John Mathew Matthan











    By kingofmovie

    By kingofmovie

    By kingofmovie

    By kingofmovie

    By kingofmovie

    By kingofmovie





    Code:
    
    
    .. K i n g o f M o v i e   ..   P r a u d l e y p r e g a n t s ..
    
    
    
    
    
    
    
    
    
    
    
                                                                       
    

    Credit To Orignal Ripper - garrysingh07







    SAMPLE





    Code:
    http://rapidshare.com/files/292608070/Sarfarosh.1999.1CD.OrignalDvdRip.X264.KoM_.mp4.001
    http://rapidshare.com/files/292607568/Sarfarosh.1999.1CD.OrignalDvdRip.X264.KoM_.mp4.002
    http://rapidshare.com/files/292608971/Sarfarosh.1999.1CD.OrignalDvdRip.X264.KoM_.mp4.003
    http://rapidshare.com/files/292605915/Sarfarosh.1999.1CD.OrignalDvdRip.X264.KoM_.mp4.004
    http://rapidshare.com/files/292607720/Sarfarosh.1999.1CD.OrignalDvdRip.X264.KoM_.mp4.005
    http://rapidshare.com/files/292606282/Sarfarosh.1999.1CD.OrignalDvdRip.X264.KoM_.mp4.006





    Code:
    http://www.easy-share.com/1908117395/Sarfarosh.1999.1CD.OrignalDvdRip.X264.KoM .mp4.001
    http://www.easy-share.com/1908117396/Sarfarosh.1999.1CD.OrignalDvdRip.X264.KoM .mp4.002
    http://www.easy-share.com/1908117401/Sarfarosh.1999.1CD.OrignalDvdRip.X264.KoM .mp4.003
    http://www.easy-share.com/1908117402/Sarfarosh.1999.1CD.OrignalDvdRip.X264.KoM .mp4.004
    http://www.easy-share.com/1908117407/Sarfarosh.1999.1CD.OrignalDvdRip.X264.KoM .mp4.005
    http://www.easy-share.com/1908117406/Sarfarosh.1999.1CD.OrignalDvdRip.X264.KoM .mp4.006




    Code:
    http://www.filefactory.com/file/a0g9669/n/Sarfarosh_1999_1CD_OrignalDvdRip_X264_KoM_mp4_001
    http://www.filefactory.com/file/a0g964g/n/Sarfarosh_1999_1CD_OrignalDvdRip_X264_KoM_mp4_002
    http://www.filefactory.com/file/a0g968d/n/Sarfarosh_1999_1CD_OrignalDvdRip_X264_KoM_mp4_003
    http://www.filefactory.com/file/a067eh5/n/Sarfarosh_1999_1CD_OrignalDvdRip_X264_KoM_mp4_004
    http://www.filefactory.com/file/a0g971h/n/Sarfarosh_1999_1CD_OrignalDvdRip_X264_KoM_mp4_005
    http://www.filefactory.com/file/a18b1b7/n/Sarfarosh_1999_1CD_OrignalDvdRip_X264_KoM_mp4_006


    Use HjSplit to Join the above files.
    Code:
    http://www.easy-share.com/1907468224/hjsplit.exe


  20. #20
    dR Contributor www.desirulez.net
    Join Date
    Sep 2009
    Posts
    305

    T

    Default





    Mera Naam Joker.1970 Supar Hit Bollywood Movie | 1CD | OrignalDvdRip | X264 | KoM |RS-ES-FF














    Status
    Released

    Color
    C

    Release Date
    1970

    Genre
    Musical / Biographical

    Shooting Locations (City & Country)
    Russian Federation

    Producer
    Raj Kapoor

    Director
    Raj Kapoor

    Star Cast
    Raj Kapoor...... Raju (Joker)
    Simi Garewal...... Mary
    Dharmendra...... Mahender
    Rishi Kapoor...... Young Raju
    Mukri...... Guest Appearance
    Padmini...... Meena/Minoo master
    Manoj Kumar...... David
    Rajendra Kumar...... Mr. Kumar
    Bhalla...... Guest Appearance
    Dara Singh Randhawa...... Sher Singh
    Achla Sachdev...... Raju's Mother
    Om Prakash...... Dr. Om Prakash (Gemini Circus) (Guest Appearance)
    Agha...... Dr. Agha (Gemini Circus) (Guest Appearance)
    Rajendra Nath...... Dr. Rajendra Nath (Gemini Circus) (Guest Appearance)
    Sunder...... Guest Appearance
    Maruti...... Guest Appearance
    Polsan...... Guest Appearance
    Birbal...... Guest Appearance
    Rashid Khan
    Prakash
    Fazal
    I S Johar
    Raaj Kumar...... Guest Appearance (uncredited)
    Nargis Dutt...... Archive footage (uncredited)
    Kseniya Ryabinkina

    Cassettes and CD's on
    Saregama-HMV

    Singers
    Manna Dey
    Asha Bhosle
    Mukesh
    Mohammed Rafi
    Simi

    Lyricist
    Neeraj
    Shailendra
    Hasrat Jaipuri
    Prem Dhawan

    Music Director
    Shankarsinh Raghuwanshi
    Jaikishan Dayabhai Pankal

    Cinematography
    Radhu Karmarkar

    Editor
    Raj Kapoor

    Screenplay
    K A Abbas

    Sound
    Minoo Katrak

    Dialogue
    K A Abbas
    Manoj Kumar

    Story / Writer
    K A Abbas























    Code:
    
    
    .. K i n g o f M o v i e   ..   P r a u d l e y p r e g a n t s ..
    
    General
    Complete name                    :  Mera.Naam.Joker.1970.1CD.OrignaLDvDrip.X264.KoM.mp4
    Format                           : MPEG-4
    Format profile                   : Base Media / Version 2
    Codec ID                         : mp42
    File size                        : 701 MiB
    Duration                         : 3h 2mn
    Overall bit rate                 : 537 Kbps
    Encoded date                     : UTC 2009-09-27 15:50:23
    Tagged date                      : UTC 2009-09-27 19:25:59
    Writing application              : HandBrake 0.9.3 2008112300
    
    Video
    ID                               : 1
    Format                           : AVC
    Format/Info                      : Advanced Video Codec
    Format profile                   : [email protected]
    Format settings, CABAC           : Yes
    Format settings, ReFrames        : 1 frame
    Codec ID                         : avc1
    Codec ID/Info                    : Advanced Video Coding
    Duration                         : 3h 2mn
    Bit rate mode                    : Variable
    Bit rate                         : 373 Kbps
    Nominal bit rate                 : 371 Kbps
    Width                            : 640 pixels
    Height                           : 480 pixels
    Display aspect ratio             : 4:3
    Frame rate mode                  : Variable
    Frame rate                       : 29.970 fps
    Minimum frame rate               : 14.981 fps
    Maximum frame rate               : 29.981 fps
    Resolution                       : 24 bits
    Colorimetry                      : 4:2:0
    Scan type                        : Progressive
    Bits/(Pixel*Frame)               : 0.041
    Stream size                      : 487 MiB (69%)
    Writing library                  : x264 core 65
    Encoding settings                : cabac=1 / ref=1 / deblock=1:0:0 / analyse=0x1:0x111 / me=umh / subme=6 / psy_rd=1.0:0.0 / mixed_ref=0 / me_range=16 / chroma_me=1 / trellis=0 / 8x8dct=0 / cqm=0 / deadzone=21,11 / chroma_qp_offset=-2 / threads=3 / nr=0 / decimate=1 / mbaff=0 / bframes=0 / keyint=300 / keyint_min=30 / scenecut=40(pre) / rc=abr / bitrate=371 / ratetol=1.0 / qcomp=0.60 / qpmin=10 / qpmax=51 / qpstep=4 / ip_ratio=1.40 / aq=1:1.00
    Encoded date                     : UTC 2009-09-27 15:50:23
    Tagged date                      : UTC 2009-09-27 19:25:59
    
    Audio
    ID                               : 2
    Format                           : AAC
    Format/Info                      : Advanced Audio Codec
    Format version                   : Version 4
    Format profile                   : LC
    Format settings, SBR             : No
    Codec ID                         : 40
    Duration                         : 3h 2mn
    Bit rate mode                    : Variable
    Bit rate                         : 160 Kbps
    Maximum bit rate                 : 231 Kbps
    Channel(s)                       : 2 channels
    Channel positions                : L R
    Sampling rate                    : 48.0 KHz
    Resolution                       : 16 bits
    Stream size                      : 209 MiB (30%)
    Encoded date                     : UTC 2009-09-27 15:50:23
    Tagged date                      : UTC 2009-09-27 19:25:47
    
    
    
    
    
    
    
                                                                       
    

    Credit To Orignal Ripper - -=[Namele$$]=-







    SAMPLE





    Code:
    http://rapidshare.com/files/298541118/Mera.Naam.Joker.1970.1CD.OrignaLDvDrip.X264.KoM.mp4.001
    http://rapidshare.com/files/298541273/Mera.Naam.Joker.1970.1CD.OrignaLDvDrip.X264.KoM.mp4.002
    http://rapidshare.com/files/298541590/Mera.Naam.Joker.1970.1CD.OrignaLDvDrip.X264.KoM.mp4.003
    http://rapidshare.com/files/298541849/Mera.Naam.Joker.1970.1CD.OrignaLDvDrip.X264.KoM.mp4.004
    http://rapidshare.com/files/298541654/Mera.Naam.Joker.1970.1CD.OrignaLDvDrip.X264.KoM.mp4.005
    http://rapidshare.com/files/298541115/Mera.Naam.Joker.1970.1CD.OrignaLDvDrip.X264.KoM.mp4.006





    Code:
    http://www.easy-share.com/1908261024/Mera.Naam.Joker.1970.1CD.OrignaLDvDrip.X264.KoM.mp4.001
    http://www.easy-share.com/1908261025/Mera.Naam.Joker.1970.1CD.OrignaLDvDrip.X264.KoM.mp4.002
    http://www.easy-share.com/1908261022/Mera.Naam.Joker.1970.1CD.OrignaLDvDrip.X264.KoM.mp4.003
    http://www.easy-share.com/1908261021/Mera.Naam.Joker.1970.1CD.OrignaLDvDrip.X264.KoM.mp4.004
    http://www.easy-share.com/1908261032/Mera.Naam.Joker.1970.1CD.OrignaLDvDrip.X264.KoM.mp4.006
    http://www.easy-share.com/1908261034/Mera.Naam.Joker.1970.1CD.OrignaLDvDrip.X264.KoM.mp4.005




    Code:
    http://www.filefactory.com/file/a175cfc/n/Mera_Naam_Joker_1970_1CD_OrignaLDvDrip_X264_KoM_mp4_001
    http://www.filefactory.com/file/a07ba71/n/Mera_Naam_Joker_1970_1CD_OrignaLDvDrip_X264_KoM_mp4_002
    http://www.filefactory.com/file/a07ba73/n/Mera_Naam_Joker_1970_1CD_OrignaLDvDrip_X264_KoM_mp4_003
    http://www.filefactory.com/file/a07ba83/n/Mera_Naam_Joker_1970_1CD_OrignaLDvDrip_X264_KoM_mp4_004
    http://www.filefactory.com/file/a07ba9e/n/Mera_Naam_Joker_1970_1CD_OrignaLDvDrip_X264_KoM_mp4_005
    http://www.filefactory.com/file/a07ba4a/n/Mera_Naam_Joker_1970_1CD_OrignaLDvDrip_X264_KoM_mp4_006


    Use HjSplit to Join the above files.
    Code:
    http://www.easy-share.com/1907468224/hjsplit.exe


 

 
Page 1 of 3 123 LastLast

Posting Permissions

  • You may not post new threads
  • You may not post replies
  • You may not post attachments
  • You may not edit your posts
  •