Results 1 to 1 of 1
  1. #1
    dR Contributor www.desirulez.net
    Join Date
    Sep 2009
    Posts
    305

    T

    Default Bachelor Party (2009) | 500mb | PDVDRIP |KoM

    Follow us on Social Media













    Bachelor Party (2009) | 500mb | PDVDRIP |KoM






    Banner
    Globe Filmy Entertainment

    Status
    Released

    Color
    C

    Release Date
    September 4, 2009

    Language
    Hindi

    Genre
    Comedy

    Producer
    Arun Bhairav
    Faizal Kapadi

    Director
    Isshaan Trivedi

    Star Cast
    Jimmy Shergill
    Nauheed Cyrusi
    Arbaaz Khan
    Ninad Kamat
    Sharat Saxena
    Madhuri Bhattacharya

    Cinematography
    Sudhir Palsane

    Choreography
    Longines Fernandes

    Action
    Mehmood Akbar Bakshi

    Art
    Ratan Suryawar
    Murudar Sabat

    Editor
    Nitin Rokade

    Sound
    Anil Dubey

    Media Relations
    Rajoo Kariya

    Story / Writer
    Arun Bhairav
    Raghuvir Shekhawat




















    Code:
    .. K i n g o f M o v i e   ..   P r a u d l e y p r e g a n t s ..
    
    Format                           : Matroska
    File size                        : 397 MiB
    Duration                         : 1h 48mn
    Overall bit rate                 : 513 Kbps
    Encoded date                     : UTC 2009-09-15 15:24:22
    
    
    Video
    ID                               : 1
    Format                           : AVC
    Format/Info                      : Advanced Video Codec
    Format profile                   : [email protected]
    Format settings, CABAC           : Yes
    Format settings, ReFrames        : 2 frames
    Muxing mode                      : Container [email protected]
    Codec ID                         : V_MPEG4/ISO/AVC
    Duration                         : 1h 48mn
    Bit rate                         : 375 Kbps
    Nominal bit rate                 : 383 Kbps
    Width                            : 608 pixels
    Height                           : 240 pixels
    Display aspect ratio             : 2.533
    Frame rate                       : 23.976 fps
    Resolution                       : 24 bits
    Colorimetry                      : 4:2:0
    Scan type                        : Progressive
    Bits/(Pixel*Frame)               : 0.107
    Stream size                      : 290 MiB (73%)
    Writing library                  : x264 core 68 r1183M f21daff
    Language                         : HinDi
    
    Audio
    ID                               : 2
    Format                           : MPEG Audio
    Format version                   : Version 1
    Format profile                   : Layer 3
    Codec ID                         : A_MPEG/L3
    Codec ID/Hint                    : MP3
    Duration                         : 1h 48mn
    Bit rate mode                    : Constant
    Bit rate                         : 128 Kbps
    Channel(s)                       : 2 channels
    Sampling rate                    : 48.0 KHz
    Resolution                       : 16 bits
    Stream size                      : 99.2 MiB (25%)
    Writing library                  : LAME3.98r
    
    
    

    Credit To Orignal Ripper =
    Source: Xeeteeej @DUS
    Ripper : AzE


    [B][COLOR="Red"][SIZE="5"]
    Sample








    Code:
    http://www.easy-share.com/1907783682/B.Party.2009.400MB.PDVD.RIP[KoM].mkv.002
    http://www.easy-share.com/1907783681/B.Party.2009.400MB.PDVD.RIP[KoM].mkv.001
    http://www.easy-share.com/1907783684/B.Party.2009.400MB.PDVD.RIP[KoM].mkv.004
    http://www.easy-share.com/1907783688/B.Party.2009.400MB.PDVD.RIP[KoM].mkv.003


    Code:
    http://www.filefactory.com/file/ah9h7cc/n/B_Party_2009_400MB_PDVD_RIP_KoM_mkv_001
    http://www.filefactory.com/file/ah9h7ff/n/B_Party_2009_400MB_PDVD_RIP_KoM_mkv_002
    http://www.filefactory.com/file/ah9h7g7/n/B_Party_2009_400MB_PDVD_RIP_KoM_mkv_003
    http://www.filefactory.com/file/ah9h7ag/n/B_Party_2009_400MB_PDVD_RIP_KoM_mkv_004


    Code:
     
    
    http://depositfiles.com/files/eseeu6cmp
    http://depositfiles.com/files/okm36jb4l
    http://depositfiles.com/files/kjq45bgov
    http://depositfiles.com/files/n4x32ulj5
    http://depositfiles.com/files/0bvqjbgc6
    Use HjSplit to Join the above files.
    Code:
    http://www.easy-share.com/1907468224/hjsplit.exe

 

 

Posting Permissions

  • You may not post new threads
  • You may not post replies
  • You may not post attachments
  • You may not edit your posts
  •