Results 1 to 1 of 1
  1. #1

    Default WWE.Bloodsport.ECW.Most.Violent.Matches.DVDRip.XviD - SER

    Follow us on Social Media





    .

    WWE.Bloodsport.ECW.Most.Violent.Matches.DVDRip.XviD-SER



    Title: WWE Bloodsport ECW Most Violent Matches
    Genre: Wrestling
    Language/s: English
    Hoster: Share-online.biz, oboom.com, Uploaded.net, Hugefiles.net
    Size: 3667,01 MB
    Parts: 19
    Password: next-generation-sport.blogspot

    Extreme Championship Wrestling - ohne jeden Zweifel war diese Liga revolutionär. Sie war wie eine Religion für die Fans. Und sie war extrem. Dieses Zwei-DVD-Set enthält Matches von 1994 bis 2005, durch die der ehemalige ECW-Boss Paul Heyman führt. Knapp sechs Stunden der extremsten Matches der ECW-Geschichte, mit den ECW-Legenden Terry Funk, Mick Foley, Sabu, Sandman, Tommy Dreamer, RVD und vielen mehr. Diese DVD ist auch bekannt als "Blood Sport - The Most Violent Matches."

    nfo:

    [spoiler]
    Code:
    Video: 640x480 1716 Kbps> 29.970 fps
    Audio: AAC Stereo
    
    Format                                   : MPEG-4
    Format profile                           : Base Media
    Codec ID                                 : isom
    File size                                : 1.06 GiB
    Duration                                 : 1h 36mn
    Overall bit rate mode                    : Variable
    Overall bit rate                         : 1 566 Kbps
    Encoded date                             : UTC 2014-03-31 19:44:52
    Tagged date                              : UTC 2014-03-31 19:44:52
    
    Video
    ID                                       : 1
    Format                                   : AVC
    Format/Info                              : Advanced Video Codec
    Format profile                           : [email protected]
    Format settings, CABAC                   : Yes
    Format settings, ReFrames                : 5 frames
    Codec ID                                 : avc1
    Codec ID/Info                            : Advanced Video Coding
    Duration                                 : 1h 36mn
    Bit rate                                 : 1 521 Kbps
    Maximum bit rate                         : 4 363 Kbps
    Width                                    : 640 pixels
    Height                                   : 480 pixels
    Display aspect ratio                     : 4:3
    Frame rate mode                          : Constant
    Frame rate                               : 29.970 fps
    Color space                              : YUV
    Chroma subsampling                       : 4:2:0
    Bit depth                                : 8 bits
    Scan type                                : Progressive
    Bits/(Pixel*Frame)                       : 0.165
    Stream size                              : 1.03 GiB (97%)
    Title                                    : /var/www/cgi-bin/uploads/01/00634/21g0xul8j3wv.h264 - Imported with GPAC 0.4.6-DEV (internal rev. 8)
    Writing library                          : x264 core 118
    Encoding settings                        : cabac=1 / ref=5 / deblock=1:0:0 / analyse=0x3:0x113 / me=umh / subme=8 / psy=1 / psy_rd=1.00:0.00 / mixed_ref=1 / me_range=16 / chroma_me=1 / trellis=1 / 8x8dct=1 / cqm=0 / deadzone=21,11 / fast_pskip=1 / chroma_qp_offset=-2 / threads=12 / sliced_threads=0 / nr=0 / decimate=1 / interlaced=0 / bluray_compat=0 / constrained_intra=0 / bframes=3 / b_pyramid=2 / b_adapt=2 / b_bias=0 / direct=3 / weightb=1 / open_gop=0 / weightp=2 / keyint=250 / keyint_min=25 / scenecut=40 / intra_refresh=0 / rc_lookahead=50 / rc=crf / mbtree=1 / crf=24.0 / qcomp=0.60 / qpmin=0 / qpmax=69 / qpstep=4 / ip_ratio=1.40 / aq=1:1.00
    Encoded date                             : UTC 2014-03-31 19:44:52
    Tagged date                              : UTC 2014-03-31 19:44:58
    
    Audio
    ID                                       : 2
    Format                                   : AAC
    Format/Info                              : Advanced Audio Codec
    Format profile                           : HE-AAC / LC
    Codec ID                                 : 40
    Duration                                 : 1h 36mn
    Bit rate mode                            : Variable
    Bit rate                                 : 41.3 Kbps
    Maximum bit rate                         : 45.6 Kbps
    Channel(s)                               : 1 channel
    Channel positions                        : Front: C
    Sampling rate                            : 44.1 KHz / 22.05 KHz
    Compression mode                         : Lossy
    Stream size                              : 28.5 MiB (3%)
    [/spoiler]

    Mirror: 1

    Share-online.biz
    Code:
    http://www.share-online.biz/dl/R5RYVE3NZ4FG
    http://www.share-online.biz/dl/XKXYVE3NTJL
    http://www.share-online.biz/dl/DRTYVE3NOG
    http://www.share-online.biz/dl/QSIYVE3NQS82
    http://www.share-online.biz/dl/KJ7YVE3NIVJB
    http://www.share-online.biz/dl/M4FYVE3NJ9MA
    http://www.share-online.biz/dl/XWXXVE3NPL
    http://www.share-online.biz/dl/UHMXVE3NR8
    http://www.share-online.biz/dl/Q2HXVE3N4W4
    http://www.share-online.biz/dl/XWBXVE3N75S
    http://www.share-online.biz/dl/EU6XVE3NL8
    http://www.share-online.biz/dl/HV0XVE3NSB1
    http://www.share-online.biz/dl/S91XVE3N7O2
    http://www.share-online.biz/dl/XZMWVE3NKWAQ
    http://www.share-online.biz/dl/JXDWVE3NM3MV
    http://www.share-online.biz/dl/SXNWVE3NO9X
    http://www.share-online.biz/dl/L02WVE3N0AK
    http://www.share-online.biz/dl/QFTVVE3NZ84K
    http://www.share-online.biz/dl/X44WVE3NA0Q
    Mirror: 2

    oboom.com
    Code:
    http://www.oboom.com/4HKZP1YE/Bloodsport.ECW.part01.rar
    http://www.oboom.com/POLEAVR2/Bloodsport.ECW.part02.rar
    http://www.oboom.com/SOTF0RET/Bloodsport.ECW.part03.rar
    http://www.oboom.com/E3MCI5F2/Bloodsport.ECW.part04.rar
    http://www.oboom.com/M46S927Q/Bloodsport.ECW.part05.rar
    http://www.oboom.com/53WKEQ0S/Bloodsport.ECW.part06.rar
    http://www.oboom.com/X28QIH04/Bloodsport.ECW.part07.rar
    http://www.oboom.com/G1Q5U3KG/Bloodsport.ECW.part08.rar
    http://www.oboom.com/NEFMIVZC/Bloodsport.ECW.part09.rar
    http://www.oboom.com/FP1T8QIX/Bloodsport.ECW.part10.rar
    http://www.oboom.com/F1I61UGJ/Bloodsport.ECW.part11.rar
    http://www.oboom.com/HCPBKUU1/Bloodsport.ECW.part12.rar
    http://www.oboom.com/WNBOMPBE/Bloodsport.ECW.part13.rar
    http://www.oboom.com/RV9MN6FL/Bloodsport.ECW.part14.rar
    http://www.oboom.com/H3VT5M7L/Bloodsport.ECW.part15.rar
    http://www.oboom.com/X5FVCX1G/Bloodsport.ECW.part16.rar
    http://www.oboom.com/68PNKCEU/Bloodsport.ECW.part17.rar
    http://www.oboom.com/ILJ4T1HL/Bloodsport.ECW.part18.rar
    http://www.oboom.com/4DVPTDB4/Bloodsport.ECW.part19.rar
    Mirror: 3

    Uploaded.net
    Code:
    http://uploaded.net/file/ima26tal/Bloodsport.ECW.part18.rar
    http://uploaded.net/file/titzeeq7/Bloodsport.ECW.part19.rar
    http://uploaded.net/file/dey6u1o5/Bloodsport.ECW.part17.rar
    http://uploaded.net/file/6c1tg7qa/Bloodsport.ECW.part16.rar
    http://uploaded.net/file/9neh269o/Bloodsport.ECW.part15.rar
    http://uploaded.net/file/31luvcq7/Bloodsport.ECW.part14.rar
    http://uploaded.net/file/42o7wtxv/Bloodsport.ECW.part12.rar
    http://uploaded.net/file/1ucxabp0/Bloodsport.ECW.part13.rar
    http://uploaded.net/file/ha95o8hb/Bloodsport.ECW.part09.rar
    http://uploaded.net/file/it1k57ur/Bloodsport.ECW.part10.rar
    http://uploaded.net/file/3mz988ll/Bloodsport.ECW.part11.rar
    http://uploaded.net/file/ti584qcu/Bloodsport.ECW.part08.rar
    http://uploaded.net/file/et38znxa/Bloodsport.ECW.part07.rar
    http://uploaded.net/file/lgarkfys/Bloodsport.ECW.part06.rar
    http://uploaded.net/file/8kb0a03h/Bloodsport.ECW.part05.rar
    http://uploaded.net/file/uqff7od0/Bloodsport.ECW.part04.rar
    http://uploaded.net/file/6izj8znn/Bloodsport.ECW.part03.rar
    http://uploaded.net/file/af2tevno/Bloodsport.ECW.part02.rar
    http://uploaded.net/file/ixexlrmx/Bloodsport.ECW.part01.rar
    Mirror: 4

    Hugefiles.net
    Code:
    http://hugefiles.net/de8tqgt7ikfo
    http://hugefiles.net/20gwi58w050z
    http://hugefiles.net/f5nqzfa6lzkr
    http://hugefiles.net/1vk9s790wutb
    http://hugefiles.net/uy41akchbua9
    http://hugefiles.net/qe6nzn9wr3vi
    http://hugefiles.net/qs054603agd9
    http://hugefiles.net/6boz9lq2ru8u
    http://hugefiles.net/3mxgeuzl6dfy
    http://hugefiles.net/cyj1ezlnzfgt
    http://hugefiles.net/ouoj9y37zvvb
    http://hugefiles.net/emlnvh6t4bqc
    http://hugefiles.net/gft6n27wx3gz
    http://hugefiles.net/5uudbnnhyz7s
    http://hugefiles.net/g7wijew1ex2l
    http://hugefiles.net/tai4lm9l9tph
    http://hugefiles.net/cbycj09onsd6
    http://hugefiles.net/auupvir7j8y6
    http://hugefiles.net/qtaerjzmyf94
    .

 

 

Posting Permissions

  • You may not post new threads
  • You may not post replies
  • You may not post attachments
  • You may not edit your posts
  •