Results 1 to 2 of 2
  1. #1

    Default WWE.WrestleMania.30.Press.Conference.HDWeb.4500k.720p.H264 - WWENetwork

    Follow us on Social Media





    .

    WWE.WrestleMania.30.Press.Conference.HDWeb.4500k.720p.H264-WWENetwork



    Title: WWE WrestleMania 30 Press Conference
    Genre: Wrestling
    Language/s: English
    Hoster: Uploaded.net, Share-online.biz, oboom.com, Hugefiles.net
    Size: 1452,88 MB
    Parts: 8
    Password: next-generation-sport.blogspot

    This is the Official WWE WrestleMania 30 Press Conference directly from the WWE Network's on demand archive for the highest possible quality!
    The Superstar-studded official press conference for WrestleMania 30 in New Orleans!

    nfo:

    [spoiler]
    Code:
    TV-PG 
    
    General 
    Complete name                            : \WWE.Network\2014.04.01-WrestleMania.30.Press.Conference.HDWeb.4500k.720p.H264-WWENetwork.mp4 
    Format                                  : MPEG-4 
    Format profile                          : Base Media 
    Codec ID                                : isom 
    File size                                : 1.41 GiB 
    Duration                                : 44mn 52s 
    Overall bit rate mode                    : Variable 
    Overall bit rate                        : 4 509 Kbps 
    Writing application                      : Lavf54.59.106 
    
    Video 
    ID                                      : 1 
    Format                                  : AVC 
    Format/Info                              : Advanced Video Codec 
    Format profile                          : [email protected] 
    Format settings, CABAC                  : Yes 
    Format settings, ReFrames                : 4 frames 
    Codec ID                                : avc1 
    Codec ID/Info                            : Advanced Video Coding 
    Duration                                : 44mn 52s 
    Bit rate mode                            : Constant 
    Bit rate                                : 4 372 Kbps 
    Width                                    : 1 280 pixels 
    Height                                  : 720 pixels 
    Display aspect ratio                    : 16:9 
    Frame rate mode                          : Variable 
    Frame rate                              : 29.970 fps 
    Minimum frame rate                      : 14.985 fps 
    Maximum frame rate                      : 29.970 fps 
    Color space                              : YUV 
    Chroma subsampling                      : 4:2:0 
    Bit depth                                : 8 bits 
    Scan type                                : Progressive 
    Bits/(Pixel*Frame)                      : 0.158 
    Stream size                              : 1.37 GiB (97%) 
    
    Audio 
    ID                                      : 2 
    Format                                  : AAC 
    Format/Info                              : Advanced Audio Codec 
    Format profile                          : LC 
    Codec ID                                : 40 
    Duration                                : 44mn 52s 
    Bit rate mode                            : Variable 
    Bit rate                                : 125 Kbps 
    Maximum bit rate                        : 130 Kbps 
    Channel(s)                              : 2 channels 
    Channel positions                        : Front: L R 
    Sampling rate                            : 48.0 KHz 
    Compression mode                        : Lossy 
    Stream size                              : 40.3 MiB (3%) 
    
    Text 
    ID                                      : 1-CC1 
    Format                                  : EIA-608 
    Muxing mode                              : SCTE 128 / DTVCC Transport 
    Muxing mode, more info                  : Muxed in Video #1 
    Duration                                : 44mn 52s
    [/spoiler]

    Mirror: 1

    Uploaded.net
    Code:
    http://uploaded.net/file/rfnje8dk/WrestleMania.30.Press.Conference.part7.rar
    http://uploaded.net/file/ub6b5srw/WrestleMania.30.Press.Conference.part8.rar
    http://uploaded.net/file/esttiaen/WrestleMania.30.Press.Conference.part2.rar
    http://uploaded.net/file/c1t2ches/WrestleMania.30.Press.Conference.part6.rar
    http://uploaded.net/file/1t2i7aq7/WrestleMania.30.Press.Conference.part5.rar
    http://uploaded.net/file/t0x2urch/WrestleMania.30.Press.Conference.part4.rar
    http://uploaded.net/file/bmgktqy9/WrestleMania.30.Press.Conference.part3.rar
    http://uploaded.net/file/404xcwe6/WrestleMania.30.Press.Conference.part1.rar
    Mirror: 2

    Share-online.biz
    Code:
    http://www.share-online.biz/dl/545SJE3NSIAG
    http://www.share-online.biz/dl/ZQZRJE3NPAFJ
    http://www.share-online.biz/dl/U7URJE3NBVWF
    http://www.share-online.biz/dl/B8URJE3NQQID
    http://www.share-online.biz/dl/OJORJE3NMOK
    http://www.share-online.biz/dl/TEJRJE3NYYX
    http://www.share-online.biz/dl/56GRJE3N92A
    http://www.share-online.biz/dl/O5DRJE3NBZT
    Mirror: 3

    oboom.com
    Code:
    http://www.oboom.com/7H24O0SK/WrestleMania.30.Press.Conference.part1.rar
    http://www.oboom.com/GBNVSKS7/WrestleMania.30.Press.Conference.part2.rar
    http://www.oboom.com/YY5AD99Q/WrestleMania.30.Press.Conference.part3.rar
    http://www.oboom.com/2K1F59WH/WrestleMania.30.Press.Conference.part4.rar
    http://www.oboom.com/WS1J55TP/WrestleMania.30.Press.Conference.part5.rar
    http://www.oboom.com/W6C4M2W9/WrestleMania.30.Press.Conference.part6.rar
    http://www.oboom.com/RITSFT75/WrestleMania.30.Press.Conference.part7.rar
    http://www.oboom.com/9XGSED57/WrestleMania.30.Press.Conference.part8.rar
    Mirror: 4

    Hugefiles.net
    Code:
    http://hugefiles.net/9xaa4naha6ka
    http://hugefiles.net/8t1fgdq5wp8g
    http://hugefiles.net/9sht4t0gq1ie
    http://hugefiles.net/6jahnjoyothp
    http://hugefiles.net/eyacsugdkevf
    http://hugefiles.net/c5zlqbp37gmm
    http://hugefiles.net/bm1ortfn4gwf
    http://hugefiles.net/3ytwow84odkh
    .

  2. #2
    Hot Member www.desirulez.net
    Join Date
    Jul 2012
    Posts
    613

    Default

    thxxxxxxxxxx

 

 

Posting Permissions

  • You may not post new threads
  • You may not post replies
  • You may not post attachments
  • You may not edit your posts
  •