Results 1 to 2 of 2
  1. #1
    Hot Member www.desirulez.net
    Join Date
    Apr 2012
    Posts
    634

    Default WWE Raw Backstage Pass 2014 03 31 HDWebDL 4500k 720p AAC H264 - WWENetwork

    Follow us on Social Media






    englisch

    WWE.Raw.Backstage.Pass.2014.03.31.HDWebDL.4500k.720p.AAC.H264-WWENetwork

    http://linksave.in/253438652533a498e70364 <= download here !


    NFO:
    Code:
    Backstage Pass to Raw #1088 
      
    Hear the inside stories and recap the highlights of Monday Night Raw, immediately following the conclusion of Raw. 
    
    
    
    TV-PG 
    
    
    General 
    Complete name                            : \WWE.Network\In.Ring\Raw.Backstage.Pass\2014.03.31-Raw.Backstage.Pass.HDWebDL.4500k.720p.AAC.H264-WWENetwork.mp4 
    Format                                  : MPEG-4 
    Format profile                          : Base Media 
    Codec ID                                : isom 
    File size                                : 713 MiB 
    Duration                                : 22mn 6s 
    Overall bit rate mode                    : Constant 
    Overall bit rate                        : 4 507 Kbps 
    Writing application                      : Lavf54.59.106 
    
    Video 
    ID                                      : 1 
    Format                                  : AVC 
    Format/Info                              : Advanced Video Codec 
    Format profile                          : [email protected] 
    Format settings, CABAC                  : Yes 
    Format settings, ReFrames                : 4 frames 
    Codec ID                                : avc1 
    Codec ID/Info                            : Advanced Video Coding 
    Duration                                : 22mn 6s 
    Bit rate mode                            : Constant 
    Bit rate                                : 4 372 Kbps 
    Width                                    : 1 280 pixels 
    Height                                  : 720 pixels 
    Display aspect ratio                    : 16:9 
    Frame rate mode                          : Variable 
    Frame rate                              : 29.970 fps 
    Minimum frame rate                      : 14.985 fps 
    Maximum frame rate                      : 29.970 fps 
    Color space                              : YUV 
    Chroma subsampling                      : 4:2:0 
    Bit depth                                : 8 bits 
    Scan type                                : Progressive 
    Bits/(Pixel*Frame)                      : 0.158 
    Stream size                              : 691 MiB (97%) 
    
    Audio 
    ID                                      : 2 
    Format                                  : AAC 
    Format/Info                              : Advanced Audio Codec 
    Format profile                          : LC 
    Codec ID                                : 40 
    Duration                                : 22mn 6s 
    Bit rate mode                            : Constant 
    Bit rate                                : 125 Kbps 
    Channel(s)                              : 2 channels 
    Channel positions                        : Front: L R 
    Sampling rate                            : 48.0 KHz 
    Compression mode                        : Lossy 
    Stream size                              : 19.8 MiB (3%) 
    
    Text 
    ID                                      : 1-CC1 
    Format                                  : EIA-608 
    Muxing mode                              : SCTE 128 / DTVCC Transport 
    Muxing mode, more info                  : Muxed in Video #1 
    Duration                                : 22mn 6s 
    Bit rate mode                            : Constant 
    Stream size                              : 0.00 Byte (0%) 
    Encoded stream size                      : 0.00 Byte (0%)
    Hoster:
    ul.to + Share-Online.biz

  2. #2
    Super Member www.desirulez.net
    Join Date
    Mar 2014
    Posts
    184

    Default

    Thank you the backstage pass

 

 

Posting Permissions

  • You may not post new threads
  • You may not post replies
  • You may not post attachments
  • You may not edit your posts
  •