Results 1 to 1 of 1
  1. #1
    Hot Member www.desirulez.net
    Join Date
    Apr 2012
    Posts
    634

    Default WWE This Week In WWE 2014 03 29 Episode 270 HDWebDL 4500K 720p AAC H264 - WWENetwork

    Follow us on Social Media






    englisch

    WWE.This.Week.In.WWE.2014.03.29.Episode.270.HDWebDL.4500K.720p.AAC.H264-WWENetwork
    http://linksave.in/449764637533743c51a705

    NFO:
    Code:
    Episode 270 
    
    This week, Triple H declares a new era, the Wyatts torment Cena, Hulk Hogan goes Hollywood and Lesnar is looking for a fight with Undertaker 
    
    General 
    Complete name                            : \WWE.Network\Originals\This.Week.In.WWE\2014.03.29-This.Week.In.WWE.Episode.270.HDWebDL.4500K.720p.AAC.H264-WWENetwork.mp4 
    Format                                  : MPEG-4 
    Format profile                          : Base Media 
    Codec ID                                : isom 
    File size                                : 898 MiB 
    Duration                                : 29mn 14s 
    Overall bit rate mode                    : Variable 
    Overall bit rate                        : 4 290 Kbps 
    Writing application                      : Lavf54.59.106 
    
    Video 
    ID                                      : 1 
    Format                                  : AVC 
    Format/Info                              : Advanced Video Codec 
    Format profile                          : [email protected] 
    Format settings, CABAC                  : Yes 
    Format settings, ReFrames                : 3 frames 
    Codec ID                                : avc1 
    Codec ID/Info                            : Advanced Video Coding 
    Duration                                : 29mn 14s 
    Bit rate mode                            : Variable 
    Bit rate                                : 4 188 Kbps 
    Maximum bit rate                        : 5 500 Kbps 
    Width                                    : 1 280 pixels 
    Height                                  : 720 pixels 
    Display aspect ratio                    : 16:9 
    Frame rate mode                          : Constant 
    Frame rate                              : 29.970 fps 
    Color space                              : YUV 
    Chroma subsampling                      : 4:2:0 
    Bit depth                                : 8 bits 
    Scan type                                : Progressive 
    Bits/(Pixel*Frame)                      : 0.152 
    Stream size                              : 876 MiB (98%) 
    
    Audio 
    ID                                      : 2 
    Format                                  : AAC 
    Format/Info                              : Advanced Audio Codec 
    Format profile                          : LC 
    Codec ID                                : 40 
    Duration                                : 29mn 14s 
    Bit rate mode                            : Constant 
    Bit rate                                : 93.5 Kbps 
    Channel(s)                              : 2 channels 
    Channel positions                        : Front: L R 
    Sampling rate                            : 48.0 KHz 
    Compression mode                        : Lossy 
    Stream size                              : 19.6 MiB (2%) 
    
    Text 
    ID                                      : 1-CC1 
    Format                                  : EIA-608 
    Muxing mode                              : SCTE 128 / DTVCC Transport 
    Muxing mode, more info                  : Muxed in Video #1 
    Duration                                : 29mn 14s 
    Bit rate mode                            : Constant 
    Stream size                              : 0.00 Byte (0%) 
    Encoded stream size                      : 0.00 Byte (0%)
    Hoster:
    ul.to + Share-Online.biz

 

 

Posting Permissions

  • You may not post new threads
  • You may not post replies
  • You may not post attachments
  • You may not edit your posts
  •