Results 1 to 1 of 1
  1. #1
    Hot Member www.desirulez.net
    Join Date
    Apr 2012
    Posts
    634

    Default WWE SmackDown Backstage Pass 2014 03 28 HDWebDL 4500K 720p AAC H264 - WWENetwork

    Follow us on Social Media






    englisch

    WWE.SmackDown.Backstage.Pass.2014.03.28.HDWebDL.4500K.720p.AAC.H264-WWENetwork
    http://linksave.in/390750156533742849a375

    NFO:
    Code:
    Smackdown Post-Show. 
    
    General 
    Complete name                            : \WWE.Network\In.Ring\SmackDown.Backstage.Pass\2014.03.28-SmackDown.Backstage.Pass.HDWebDL.4500K.720p.AAC.H264-WWENetwork.mp4 
    Format                                  : MPEG-4 
    Format profile                          : Base Media 
    Codec ID                                : isom 
    File size                                : 851 MiB 
    Duration                                : 28mn 47s 
    Overall bit rate mode                    : Variable 
    Overall bit rate                        : 4 133 Kbps 
    Writing application                      : Lavf55.25.101 
    
    Video 
    ID                                      : 1 
    Format                                  : AVC 
    Format/Info                              : Advanced Video Codec 
    Format profile                          : [email protected] 
    Format settings, CABAC                  : Yes 
    Format settings, ReFrames                : 3 frames 
    Codec ID                                : avc1 
    Codec ID/Info                            : Advanced Video Coding 
    Duration                                : 28mn 47s 
    Bit rate mode                            : Variable 
    Bit rate                                : 4 031 Kbps 
    Maximum bit rate                        : 5 500 Kbps 
    Width                                    : 1 280 pixels 
    Height                                  : 720 pixels 
    Display aspect ratio                    : 16:9 
    Frame rate mode                          : Constant 
    Frame rate                              : 29.970 fps 
    Color space                              : YUV 
    Chroma subsampling                      : 4:2:0 
    Bit depth                                : 8 bits 
    Scan type                                : Progressive 
    Bits/(Pixel*Frame)                      : 0.146 
    Stream size                              : 830 MiB (98%) 
    
    Audio 
    ID                                      : 2 
    Format                                  : AAC 
    Format/Info                              : Advanced Audio Codec 
    Format profile                          : LC 
    Codec ID                                : 40 
    Duration                                : 28mn 47s 
    Bit rate mode                            : Constant 
    Bit rate                                : 93.5 Kbps 
    Channel(s)                              : 2 channels 
    Channel positions                        : Front: L R 
    Sampling rate                            : 48.0 KHz 
    Compression mode                        : Lossy 
    Stream size                              : 19.2 MiB (2%) 
    
    Text 
    ID                                      : 1-CC1 
    Format                                  : EIA-608 
    Muxing mode                              : SCTE 128 / DTVCC Transport 
    Muxing mode, more info                  : Muxed in Video #1 
    Duration                                : 28mn 47s 
    Bit rate mode                            : Constant 
    Stream size                              : 0.00 Byte (0%) 
    Encoded stream size                      : 0.00 Byte (0%)
    Hoster:
    ul.to + Share-Online.biz

 

 

Posting Permissions

  • You may not post new threads
  • You may not post replies
  • You may not post attachments
  • You may not edit your posts
  •