Results 1 to 2 of 2
  1. #1
    Hot Member www.desirulez.net
    Join Date
    Apr 2012
    Posts
    634

    Default WWE SmackDown Backstage Pass 2014 03 28 HDWebDL 2400K 540p AAC H264 - WWENetwork

    Follow us on Social Media






    englisch

    WWE.SmackDown.Backstage.Pass.2014.03.28.HDWebDL.2400K.540p.AAC.H264-WWENetwork
    http://uploaded.net/file/wx2odfun/WW...s.5p-WWNet.rar
    http://www.share-online.biz/dl/2I9EZ63NDRN

    Code:
    http://uploaded.net/file/wx2odfun/WW.SD.2014.03.28.BackPass.5p-WWNet.rar
    http://www.share-online.biz/dl/2I9EZ63NDRN
    NFO:
    Code:
    Smackdown Post-Show. 
    
    General 
    Complete name                            : \WWE.Network\In.Ring\SmackDown.Backstage.Pass\2014.03.28-SmackDown.Backstage.Pass.HDWebDL.2400K.540p.AAC.H264-WWENetwork.mp4 
    Format                                  : MPEG-4 
    Format profile                          : Base Media 
    Codec ID                                : isom 
    File size                                : 456 MiB 
    Duration                                : 28mn 47s 
    Overall bit rate mode                    : Variable 
    Overall bit rate                        : 2 213 Kbps 
    Writing application                      : Lavf55.25.101 
    
    Video 
    ID                                      : 1 
    Format                                  : AVC 
    Format/Info                              : Advanced Video Codec 
    Format profile                          : [email protected] 
    Format settings, CABAC                  : Yes 
    Format settings, ReFrames                : 3 frames 
    Codec ID                                : avc1 
    Codec ID/Info                            : Advanced Video Coding 
    Duration                                : 28mn 47s 
    Bit rate mode                            : Variable 
    Bit rate                                : 2 111 Kbps 
    Maximum bit rate                        : 2 875 Kbps 
    Width                                    : 960 pixels 
    Height                                  : 540 pixels 
    Display aspect ratio                    : 16:9 
    Frame rate mode                          : Constant 
    Frame rate                              : 29.970 fps 
    Color space                              : YUV 
    Chroma subsampling                      : 4:2:0 
    Bit depth                                : 8 bits 
    Scan type                                : Progressive 
    Bits/(Pixel*Frame)                      : 0.136 
    Stream size                              : 435 MiB (95%) 
    
    Audio 
    ID                                      : 2 
    Format                                  : AAC 
    Format/Info                              : Advanced Audio Codec 
    Format profile                          : LC 
    Codec ID                                : 40 
    Duration                                : 28mn 47s 
    Bit rate mode                            : Constant 
    Bit rate                                : 93.5 Kbps 
    Channel(s)                              : 2 channels 
    Channel positions                        : Front: L R 
    Sampling rate                            : 48.0 KHz 
    Compression mode                        : Lossy 
    Stream size                              : 19.2 MiB (4%) 
    
    Text 
    ID                                      : 1-CC1 
    Format                                  : EIA-608 
    Muxing mode                              : SCTE 128 / DTVCC Transport 
    Muxing mode, more info                  : Muxed in Video #1 
    Duration                                : 28mn 47s 
    Bit rate mode                            : Constant 
    Stream size                              : 0.00 Byte (0%) 
    Encoded stream size                      : 0.00 Byte (0%)
    Hoster:
    ul.to + Share-Online.biz

  2. #2
    Super Member www.desirulez.net
    Join Date
    Mar 2014
    Posts
    184

    Default

    Thank you for the backstage pass

 

 

Posting Permissions

  • You may not post new threads
  • You may not post replies
  • You may not post attachments
  • You may not edit your posts
  •