Results 1 to 1 of 1
  1. #1
    Hot Member www.desirulez.net
    Join Date
    Apr 2012
    Posts
    634

    Default WWE SmackDown Pre-Show 2014 03 14 720p Web-DL H264 - WWENerd14

    Follow us on Social Media






    englisch

    WWE.SmackDown.Pre-Show.2014.03.14.720p.Web-DL.H264-WWENerd14
    http://www.share-online.biz/dl/5PQ7WG2N1OLI
    http://uploaded.net/file/r3ryekik/WW...-WWENerd14.rar

    Code:
    http://www.share-online.biz/dl/5PQ7WG2N1OLI
    http://uploaded.net/file/r3ryekik/WW.SD.PreSh.2014.03.14.7p-WWENerd14.rar
    NFO:
    Code:
    Pre-Show to SmackDown #760 - March 14, 2014 
    
    Format                                  : MPEG-4 
    Format profile                          : Base Media 
    Codec ID                                : isom 
    File size                                : 605 MiB 
    Duration                                : 29mn 29s 
    Overall bit rate mode                    : Variable 
    Overall bit rate                        : 2 870 Kbps 
    Writing application                      : Lavf55.7.100 
    
    Video 
    ID                                      : 1 
    Format                                  : AVC 
    Format/Info                              : Advanced Video Codec 
    Format profile                          : [email protected] 
    Format settings, CABAC                  : Yes 
    Format settings, ReFrames                : 3 frames 
    Codec ID                                : avc1 
    Codec ID/Info                            : Advanced Video Coding 
    Duration                                : 29mn 29s 
    Bit rate mode                            : Variable 
    Bit rate                                : 2 731 Kbps 
    Maximum bit rate                        : 3 656 Kbps 
    Width                                    : 960 pixels 
    Height                                  : 720 pixels 
    Display aspect ratio                    : 16:9 
    Frame rate mode                          : Variable 
    Frame rate                              : 29.970 fps 
    Minimum frame rate                      : 29.412 fps 
    Maximum frame rate                      : 30.303 fps 
    Color space                              : YUV 
    Chroma subsampling                      : 4:2:0 
    Bit depth                                : 8 bits 
    Scan type                                : Progressive 
    Bits/(Pixel*Frame)                      : 0.132 
    Stream size                              : 576 MiB (95%) 
    
    Audio 
    ID                                      : 2 
    Format                                  : AAC 
    Format/Info                              : Advanced Audio Codec 
    Format profile                          : LC 
    Codec ID                                : 40 
    Duration                                : 29mn 29s 
    Bit rate mode                            : Constant 
    Bit rate                                : 128 Kbps 
    Channel(s)                              : 2 channels 
    Channel positions                        : Front: L R 
    Sampling rate                            : 48.0 KHz 
    Compression mode                        : Lossy 
    Stream size                              : 27.0 MiB (4%)
    Hoster:
    ul.to + Share-Online.biz

 

 

Posting Permissions

  • You may not post new threads
  • You may not post replies
  • You may not post attachments
  • You may not edit your posts
  •