Results 1 to 1 of 1
  1. #1
    Hot Member www.desirulez.net
    Join Date
    Apr 2012
    Posts
    634

    Default WWE Raw Pre Show 2014 03 10 720p Web-DL H264 - WWENerd14

    Follow us on Social Media






    englisch

    WWE.Raw.Pre.Show.2014.03.10.720p.Web-DL.H264-WWENerd14
    http://www.share-online.biz/dl/JNJ4E92N1Z1
    http://uploaded.net/file/2sylyusy/WW....7p-WENerd.rar

    Code:
    http://www.share-online.biz/dl/JNJ4E92N1Z1
    http://uploaded.net/file/2sylyusy/WW.Raw.2014.03.10.PreSh.7p-WENerd.rar
    NFO:
    Code:
    The Raw Pre-Show delivers WWE's inside stories and previews Monday Night Raw for March 10, 2014. 
    
    
    Format                                  : MPEG-4 
    Format profile                          : Base Media 
    Codec ID                                : isom 
    File size                                : 630 MiB 
    Duration                                : 29mn 16s 
    Overall bit rate mode                    : Constant 
    Overall bit rate                        : 3 010 Kbps 
    Writing application                      : Lavf55.7.100 
    
    Video 
    ID                                      : 1 
    Format                                  : AVC 
    Format/Info                              : Advanced Video Codec 
    Format profile                          : [email protected] 
    Format settings, CABAC                  : Yes 
    Format settings, ReFrames                : 4 frames 
    Codec ID                                : avc1 
    Codec ID/Info                            : Advanced Video Coding 
    Duration                                : 29mn 16s 
    Bit rate mode                            : Constant 
    Bit rate                                : 2 872 Kbps 
    Width                                    : 960 pixels 
    Height                                  : 720 pixels 
    Display aspect ratio                    : 16:9 
    Frame rate mode                          : Variable 
    Frame rate                              : 29.970 fps 
    Minimum frame rate                      : 29.412 fps 
    Maximum frame rate                      : 30.303 fps 
    Color space                              : YUV 
    Chroma subsampling                      : 4:2:0 
    Bit depth                                : 8 bits 
    Scan type                                : Progressive 
    Bits/(Pixel*Frame)                      : 0.139 
    Stream size                              : 601 MiB (95%) 
    
    Audio 
    ID                                      : 2 
    Format                                  : AAC 
    Format/Info                              : Advanced Audio Codec 
    Format profile                          : LC 
    Codec ID                                : 40 
    Duration                                : 29mn 16s 
    Bit rate mode                            : Constant 
    Bit rate                                : 128 Kbps 
    Channel(s)                              : 2 channels 
    Channel positions                        : Front: L R 
    Sampling rate                            : 48.0 KHz 
    Compression mode                        : Lossy 
    Stream size                              : 26.9 MiB (4%) 
    
    Text 
    ID                                      : 1-CC1 
    Format                                  : EIA-608 
    Muxing mode                              : SCTE 128 / DTVCC Transport 
    Muxing mode, more info                  : Muxed in Video #1 
    Duration                                : 29mn 16s 
    Bit rate mode                            : Constant 
    Stream size                              : 0.00 Byte (0%) 
    Encoded stream size                      : 0.00 Byte (0%)
    Hoster:
    ul.to + Share-Online.biz

 

 

Posting Permissions

  • You may not post new threads
  • You may not post replies
  • You may not post attachments
  • You may not edit your posts
  •