Loading...
Results 1 to 1 of 1
  1. #1

    Default WWE Elimination Chamber 2014 PPV DL German English HDTV x264-uploader2013

    Follow us on Social Media





    .

    WWE.Elimination.Chamber.2014.PPV.DL.German.English.HDTV.x264-uploader2013



    Title: WWE Elimination Chamber 2014
    Genre: Wrestling
    Language/s: English, German
    Hoster: Uploaded.net, Share-online.biz, Terafile.co, Filemonkey.in
    Size: 1826,3 MB
    Parts: 10
    Password: NeXt

    Elimination Chamber is an upcoming professional wrestling pay-per-view event produced by WWE.
    The fifth annual Elimination Chamber event will take place on February 23, 2014, at the Target Center in Minneapolis, and will feature the Elimination Chamber match.

    nfo:

    [spoiler]
    Code:
    Format                                   : Matroska
    Format version                           : Version 2
    File size                                : 1.77 GiB
    Duration                                 : 2h 59mn
    Overall bit rate                         : 1 416 Kbps
    Writing application                      : HandBrake 0.9.9
    Writing library                          : libmkv 0.6.5
    
    Video
    ID                                       : 1
    Format                                   : AVC
    Format/Info                              : Advanced Video Codec
    Format profile                           : [email protected]
    Format settings, CABAC                   : Yes
    Format settings, ReFrames                : 4 frames
    Codec ID                                 : V_MPEG4/ISO/AVC
    Bit rate                                 : 1 004 Kbps
    Width                                    : 700 pixels
    Height                                   : 400 pixels
    Display aspect ratio                     : 16:9
    Frame rate mode                          : Variable
    Color space                              : YUV
    Chroma subsampling                       : 4:2:0
    Bit depth                                : 8 bits
    Scan type                                : Progressive
    Writing library                          : x264 core 130 r2273 b3065e6
    Encoding settings                        : cabac=1 / ref=1 / deblock=1:0:0 / analyse=0x1:0x111 / me=hex / subme=2 / psy=1 / psy_rd=1.00:0.00 / mixed_ref=0 / me_range=16 / chroma_me=1 / trellis=0 / 8x8dct=0 / cqm=0 / deadzone=21,11 / fast_pskip=1 / chroma_qp_offset=0 / threads=6 / lookahead_threads=2 / sliced_threads=0 / nr=0 / decimate=1 / interlaced=0 / bluray_compat=0 / constrained_intra=0 / bframes=3 / b_pyramid=2 / b_adapt=1 / b_bias=0 / direct=1 / weightb=1 / open_gop=0 / weightp=1 / keyint=250 / keyint_min=25 / scenecut=40 / intra_refresh=0 / rc_lookahead=10 / rc=crf / mbtree=1 / crf=25.0 / qcomp=0.60 / qpmin=0 / qpmax=69 / qpstep=4 / vbv_maxrate=20000 / vbv_bufsize=25000 / crf_max=0.0 / nal_hrd=none / ip_ratio=1.40 / aq=1:1.00
    Language                                 : English
    Default                                  : Yes
    Forced                                   : No
    Color primaries                          : BT.709
    Transfer characteristics                 : BT.709
    Matrix coefficients                      : BT.709
    
    Audio #1
    ID                                       : 2
    Format                                   : AC-3
    Format/Info                              : Audio Coding 3
    Mode extension                           : CM (complete main)
    Format settings, Endianness              : Big
    Codec ID                                 : A_AC3
    Duration                                 : 2h 59mn
    Bit rate mode                            : Constant
    Bit rate                                 : 192 Kbps
    Channel(s)                               : 2 channels
    Channel positions                        : Front: L R
    Sampling rate                            : 48.0 KHz
    Bit depth                                : 16 bits
    Compression mode                         : Lossy
    Stream size                              : 246 MiB (14%)
    Language                                 : German
    Default                                  : Yes
    Forced                                   : No
    
    Audio #2
    ID                                       : 3
    Format                                   : AC-3
    Format/Info                              : Audio Coding 3
    Mode extension                           : CM (complete main)
    Format settings, Endianness              : Big
    Codec ID                                 : A_AC3
    Duration                                 : 2h 59mn
    Bit rate mode                            : Constant
    Bit rate                                 : 192 Kbps
    Channel(s)                               : 2 channels
    Channel positions                        : Front: L R
    Sampling rate                            : 48.0 KHz
    Bit depth                                : 16 bits
    Compression mode                         : Lossy
    Stream size                              : 246 MiB (14%)
    Language                                 : English
    [/spoiler]

    Mirror: 1

    Uploaded.net
    Code:
    http://ul.to/7elkvq2h
    http://ul.to/33hxc2na
    http://ul.to/jl8modbb
    http://ul.to/70c3em33
    http://ul.to/lrl8vhc7
    http://ul.to/nd34r4xp
    http://ul.to/s6bn6m3o
    http://ul.to/bgz99ouv
    http://ul.to/834h8rag
    http://ul.to/lcbfne0e
    Mirror: 2

    Share-online.biz
    Code:
    http://www.share-online.biz/dl/8WKY8I1NDL5
    http://www.share-online.biz/dl/36GY8I1NK432
    http://www.share-online.biz/dl/MW5Y8I1NI5
    http://www.share-online.biz/dl/DK9Y8I1NPM
    http://www.share-online.biz/dl/HQ3Y8I1N196
    http://www.share-online.biz/dl/IW3Y8I1NRVB
    http://www.share-online.biz/dl/Z9YX8I1NPX8E
    http://www.share-online.biz/dl/RGPX8I1NGUM
    http://www.share-online.biz/dl/DDJX8I1NXE0
    http://www.share-online.biz/dl/1Q3X8I1NX2Z
    Mirror: 3

    Terafile.co
    Code:
    http://terafile.co/2408803d5048/Chamber.2014-GER.part01.rar
    http://terafile.co/87d876799423/Chamber.2014-GER.part02.rar
    http://terafile.co/c66891f1717a/Chamber.2014-GER.part03.rar
    http://terafile.co/457b5566540f/Chamber.2014-GER.part04.rar
    http://terafile.co/180d13743d25/Chamber.2014-GER.part05.rar
    http://terafile.co/1528c3327a09/Chamber.2014-GER.part06.rar
    http://terafile.co/14285a64b020/Chamber.2014-GER.part07.rar
    http://terafile.co/11119631666e/Chamber.2014-GER.part08.rar
    http://terafile.co/4030b90de093/Chamber.2014-GER.part09.rar
    http://terafile.co/fca8852749f5/Chamber.2014-GER.part10.rar
    Mirror: 4

    Filemonkey.in
    Code:
    https://www.filemonkey.in/file/4kdcbfl1fmhw2sg4
    https://www.filemonkey.in/file/lkkm7h3ckzy82n0v
    https://www.filemonkey.in/file/x8zk46ggja33fnfo
    https://www.filemonkey.in/file/v8k1e18nluyfnlqw
    https://www.filemonkey.in/file/b84xmycydk2im3st
    https://www.filemonkey.in/file/hj5aaron7t1sf2qa
    https://www.filemonkey.in/file/fa0ze2zlah6nwjaj
    https://www.filemonkey.in/file/3w15gh9v76964mw2
    https://www.filemonkey.in/file/6p9vhuropaf2pdnh
    https://www.filemonkey.in/file/jea7pvan6lsaqafr
    .

 

 

Posting Permissions

  • You may not post new threads
  • You may not post replies
  • You may not post attachments
  • You may not edit your posts
  •