Results 1 to 1 of 1
  1. #1

    Default WWE.Elimination.Chamber.2014.KickOffShow.DL.German.English.720p.HDTV.x264 - uploader2013

    Follow us on Social Media





    .

    WWE.Elimination.Chamber.2014.KickOffShow.DL.German.English.720p.HDTV.x264-uploader2013



    Title: WWE Elimination Chamber 2014 KickOffShow
    Genre: Wrestling
    Language/s: English, German
    Hoster: Uploaded.net, Share-online.biz, uploadsat.com, Filemonkey.in, Terafile.co
    Size: 552,59 MB
    Parts: 3
    Password: NeXt

    Elimination Chamber is an upcoming professional wrestling pay-per-view event produced by WWE.
    The fifth annual Elimination Chamber event will take place on February 23, 2014, at the Target Center in Minneapolis, and will feature the Elimination Chamber match.

    nfo:

    [spoiler]
    Code:
    WWE.Elimination.Chamber.2014.KickOffShow.DL.German.English.720p.HDTV.x264-uploader2013
    
    Complete name                            : E:\KickOffShow\Elimination ChamberNo Escape KickOffShow DL German English 720p.mkv
    Format                                   : Matroska
    Format version                           : Version 2
    File size                                : 548 MiB
    Duration                                 : 28mn 58s
    Overall bit rate                         : 2 643 Kbps
    Writing application                      : HandBrake 0.9.9
    Writing library                          : libmkv 0.6.5
    
    Video
    ID                                       : 1
    Format                                   : AVC
    Format/Info                              : Advanced Video Codec
    Format profile                           : [email protected]
    Format settings, CABAC                   : Yes
    Format settings, ReFrames                : 4 frames
    Codec ID                                 : V_MPEG4/ISO/AVC
    Bit rate                                 : 2 206 Kbps
    Width                                    : 1 280 pixels
    Height                                   : 720 pixels
    Display aspect ratio                     : 16:9
    Frame rate mode                          : Variable
    Color space                              : YUV
    Chroma subsampling                       : 4:2:0
    Bit depth                                : 8 bits
    Scan type                                : Progressive
    Writing library                          : x264 core 130 r2273 b3065e6
    Encoding settings                        : cabac=1 / ref=1 / deblock=1:0:0 / analyse=0x1:0x111 / me=hex / subme=2 / psy=1 / psy_rd=1.00:0.00 / mixed_ref=0 / me_range=16 / chroma_me=1 / trellis=0 / 8x8dct=0 / cqm=0 / deadzone=21,11 / fast_pskip=1 / chroma_qp_offset=0 / threads=6 / lookahead_threads=2 / sliced_threads=0 / nr=0 / decimate=1 / interlaced=0 / bluray_compat=0 / constrained_intra=0 / bframes=3 / b_pyramid=2 / b_adapt=1 / b_bias=0 / direct=1 / weightb=1 / open_gop=0 / weightp=1 / keyint=250 / keyint_min=25 / scenecut=40 / intra_refresh=0 / rc_lookahead=10 / rc=crf / mbtree=1 / crf=25.0 / qcomp=0.60 / qpmin=0 / qpmax=69 / qpstep=4 / vbv_maxrate=20000 / vbv_bufsize=25000 / crf_max=0.0 / nal_hrd=none / ip_ratio=1.40 / aq=1:1.00
    Language                                 : English
    Default                                  : Yes
    Forced                                   : No
    Color primaries                          : BT.709
    Transfer characteristics                 : BT.709
    Matrix coefficients                      : BT.709
    
    Audio #1
    ID                                       : 2
    Format                                   : AC-3
    Format/Info                              : Audio Coding 3
    Mode extension                           : CM (complete main)
    Format settings, Endianness              : Big
    Codec ID                                 : A_AC3
    Duration                                 : 28mn 58s
    Bit rate mode                            : Constant
    Bit rate                                 : 192 Kbps
    Channel(s)                               : 2 channels
    Channel positions                        : Front: L R
    Sampling rate                            : 48.0 KHz
    Bit depth                                : 16 bits
    Compression mode                         : Lossy
    Stream size                              : 39.8 MiB (7%)
    Language                                 : German
    Default                                  : Yes
    Forced                                   : No
    
    Audio #2
    ID                                       : 3
    Format                                   : AC-3
    Format/Info                              : Audio Coding 3
    Mode extension                           : CM (complete main)
    Format settings, Endianness              : Big
    Codec ID                                 : A_AC3
    Duration                                 : 28mn 58s
    Bit rate mode                            : Constant
    Bit rate                                 : 192 Kbps
    Channel(s)                               : 2 channels
    Channel positions                        : Front: L R
    Sampling rate                            : 48.0 KHz
    Bit depth                                : 16 bits
    Compression mode                         : Lossy
    Stream size                              : 39.8 MiB (7%)
    Language                                 : English
    [/spoiler]

    Mirror: 1

    Uploaded.net
    Code:
    http://ul.to/yrjqkn71
    http://ul.to/ptr6wkmr
    http://ul.to/u9kphyv0
    Mirror: 2

    Share-online.biz
    Code:
    http://www.share-online.biz/dl/OOE01I1N0A
    http://www.share-online.biz/dl/JD801I1NNA
    http://www.share-online.biz/dl/HX301I1N3UAN
    Mirror: 3

    uploadsat.com
    Code:
    http://uploadsat.com/kwfk2uhrejk3.html
    http://uploadsat.com/8jppsnhcj7qw.html
    http://uploadsat.com/nfpwu8d22or9.html
    Mirror: 4

    Filemonkey.in
    Code:
    https://www.filemonkey.in/file/0adrmgn7h92kzxm7
    https://www.filemonkey.in/file/qnttto1j8fbz84rd
    https://www.filemonkey.in/file/epeq5j0swd5mt0gz
    Mirror: 5

    Terafile.co
    Code:
    http://terafile.co/135554484c5c/KickOffShow.part1.rar
    http://terafile.co/78fd15107183/KickOffShow.part2.rar
    http://terafile.co/8b1089630948/KickOffShow.part3.rar
    .

 

 

Posting Permissions

  • You may not post new threads
  • You may not post replies
  • You may not post attachments
  • You may not edit your posts
  •