Results 1 to 1 of 1
  1. #1
    dR Rockers www.desirulez.net
    Join Date
    Sep 2011
    Posts
    1,288

    Arrow WWE Elimination Chamber 2014 1080i HDTV DD2 0 H 264-lulz

    Follow us on Social Media








    WWE.Elimination.Chamber.2014.1080i.HDTV.DD2.0.H.264-lulz




    Code:
    General
    ID : 1 (0x1)
    Complete name : WWE.Elimination.Chamber.2014.1080i.HDTV.DD2.0.H.264-lulz.ts
    Format : MPEG-TS
    File size : 17.3 GiB
    Duration : 2h 54mn
    Overall bit rate mode : Variable
    Overall bit rate : 14.2 Mbps
    
    Video
    ID : 514 (0x202)
    Menu ID : 1 (0x1)
    Format : AVC
    Format/Info : Advanced Video Codec
    Format profile : [email protected]
    Format settings, CABAC : Yes
    Format settings, ReFrames : 4 frames
    Format settings, GOP : M=4, N=12
    Codec ID : 27
    Duration : 2h 54mn
    Bit rate : 13.1 Mbps
    Width : 1 920 pixels
    Height : 1 080 pixels
    Display aspect ratio : 16:9
    Frame rate : 25.000 fps
    Color space : YUV
    Chroma subsampling : 4:2:0
    Bit depth : 8 bits
    Scan type : Interlaced
    Scan order : Top Field First
    Bits/(Pixel*Frame) : 0.253
    Stream size : 16.0 GiB (92%)
    Color primaries : BT.709
    Transfer characteristics : BT.709
    Matrix coefficients : BT.709
    
    Audio
    ID : 662 (0x296)
    Menu ID : 1 (0x1)
    Format : AC-3
    Format/Info : Audio Coding 3
    Mode extension : CM (complete main)
    Format settings, Endianness : Big
    Codec ID : 6
    Duration : 2h 54mn
    Bit rate mode : Constant
    Bit rate : 384 Kbps
    Channel(s) : 2 channels
    Channel positions : Front: L R
    Sampling rate : 48.0 KHz
    Bit depth : 16 bits
    Compression mode : Lossy
    Stream size : 478 MiB (3%)
    Language : English






    Code:
    UPLOADED
    http://uploaded.net/file/1oh4iomn/WWE.Elimination.Chamber.2014.1080i.HDTV.DD2.0.H.264-lulz.part01.rar
    http://uploaded.net/file/tqttb7ow/WWE.Elimination.Chamber.2014.1080i.HDTV.DD2.0.H.264-lulz.part02.rar
    http://uploaded.net/file/chy3uqmn/WWE.Elimination.Chamber.2014.1080i.HDTV.DD2.0.H.264-lulz.part03.rar
    http://uploaded.net/file/6dosdrsz/WWE.Elimination.Chamber.2014.1080i.HDTV.DD2.0.H.264-lulz.part04.rar
    http://uploaded.net/file/u4l85ddq/WWE.Elimination.Chamber.2014.1080i.HDTV.DD2.0.H.264-lulz.part05.rar
    http://uploaded.net/file/zmgf8v6f/WWE.Elimination.Chamber.2014.1080i.HDTV.DD2.0.H.264-lulz.part06.rar
    http://uploaded.net/file/94vdpmj8/WWE.Elimination.Chamber.2014.1080i.HDTV.DD2.0.H.264-lulz.part07.rar
    http://uploaded.net/file/3jpfhtnw/WWE.Elimination.Chamber.2014.1080i.HDTV.DD2.0.H.264-lulz.part08.rar
    http://uploaded.net/file/gr7z5a5a/WWE.Elimination.Chamber.2014.1080i.HDTV.DD2.0.H.264-lulz.part09.rar
    Code:
    RAPIDGATOR
    http://rapidgator.net/file/0c9461bf113888da0d3037f4107adfcf/WWE.Elimination.Chamber.2014.1080i.HDTV.DD2.0.H.264-lulz.part01.rar.html
    http://rapidgator.net/file/41a69c34728fbfe7c0612be07d6c6b0c/WWE.Elimination.Chamber.2014.1080i.HDTV.DD2.0.H.264-lulz.part02.rar.html
    http://rapidgator.net/file/ca8847fef07242b695c1ce059159a162/WWE.Elimination.Chamber.2014.1080i.HDTV.DD2.0.H.264-lulz.part03.rar.html
    http://rapidgator.net/file/f496b14e62e514acd5eaf2654bd55f08/WWE.Elimination.Chamber.2014.1080i.HDTV.DD2.0.H.264-lulz.part04.rar.html
    http://rapidgator.net/file/ac9982f900ad53a5abc4d7bb03a5f13f/WWE.Elimination.Chamber.2014.1080i.HDTV.DD2.0.H.264-lulz.part05.rar.html
    http://rapidgator.net/file/0b347c4f74084ac52ec8a4fbb3bd47d1/WWE.Elimination.Chamber.2014.1080i.HDTV.DD2.0.H.264-lulz.part06.rar.html
    http://rapidgator.net/file/b20994cc9b3687f930e83cf1343966aa/WWE.Elimination.Chamber.2014.1080i.HDTV.DD2.0.H.264-lulz.part07.rar.html
    http://rapidgator.net/file/d9d1fbbac8bc82b7341fc68db22af8e7/WWE.Elimination.Chamber.2014.1080i.HDTV.DD2.0.H.264-lulz.part08.rar.html
    http://rapidgator.net/file/cbe7c5870278169f12b643933cb60693/WWE.Elimination.Chamber.2014.1080i.HDTV.DD2.0.H.264-lulz.part09.rar.html

 

 

Posting Permissions

  • You may not post new threads
  • You may not post replies
  • You may not post attachments
  • You may not edit your posts
  •