Results 1 to 1 of 1
  1. #1

    Default WWE Superstars 21.2.2014 HDTV x264

    Follow us on Social Media





    WWE Superstars 21.2.2014 HDTV x264



    Video
    ID : 1
    Format : AVC
    Format/Info : Advanced Video Codec
    Format profile : [email protected]
    Format settings, CABAC : Yes
    Format settings, ReFrames : 4 frames
    Codec ID : avc1
    Codec ID/Info : Advanced Video Coding
    Duration : 45mn 58s
    Bit rate : 698 Kbps
    Width : 704 pixels
    Height : 400 pixels
    Display aspect ratio : 16:9
    Frame rate mode : Constant
    Frame rate : 29.970 fps
    Color space : YUV
    Chroma subsampling : 4:2:0
    Bit depth : 8 bits
    Scan type : Progressive
    Bits/(Pixel*Frame) : 0.083
    Stream size : 230 MiB (84%)
    Writing library : x264 core 140 r2377M 1ca7bb9

    Audio
    ID : 2
    Format : AAC
    Format/Info : Advanced Audio Codec
    Format profile : LC
    Codec ID : 40
    Duration : 45mn 58s
    Duration_LastFrame : -15ms
    Bit rate mode : Variable
    Bit rate : 128 Kbps
    Maximum bit rate : 800 Kbps
    Channel(s) : 2 channels
    Channel positions : Front: L R
    Sampling rate : 44.1 KHz
    Compression mode : Lossy
    Stream size : 42.1 MiB (15%)

    Become Premium for maximum speed, resuming ability and no waiting


    Code:
    ====== UPLOADED>TO ======
    http://ul.to/v27q8m5i/WWE.Superstars.2.21.14.HDTV.x264.mp4
    
    ====== RAPIDGATOR ======
    http://rapidgator.net/file/6a93ea4b9ba05ce5bb4f9c4b045af298/WWE.Superstars.2.21.14.HDTV.x264.mp4.html
    
    ====== Ryushare ======
    http://ryushare.com/la65drubvlkk/WWE.Superstars.2.21.14.HDTV.x264.mp4
    
    ====== Turbobit ======
    http://turbobit.net/s4bukhbqinr3/WWE.Superstars.2.21.14.HDTV.x264.mp4.html
    
    ====== Filefactory ======
    http://www.filefactory.com/file/2lp9b76a72dd/WWE.Superstars.2.21.14.HDTV.x264.mp4





 

 

Posting Permissions

  • You may not post new threads
  • You may not post replies
  • You may not post attachments
  • You may not edit your posts
  •