Results 1 to 1 of 1
  1. #1
    dR Rockers www.desirulez.net
    Join Date
    Jun 2011
    Posts
    2,793

    Thumbs up WWE Friday Night Smackdown 2014 02 07 PDTV x264 MATCH

    Follow us on Social Media










    General
    Format : MPEG-4
    Format profile : Base Media
    Codec ID : isom
    File size : 1.01 GiB
    Duration : 1h 26mn
    Overall bit rate mode : Variable
    Overall bit rate : 1 671 Kbps
    Encoded date : UTC 2014-02-08 00:56:34
    Tagged date : UTC 2014-02-08 00:56:34

    Video
    ID : 1
    Format : AVC
    Format/Info : Advanced Video Codec
    Format profile : [email protected]
    Format settings, CABAC : Yes
    Format settings, ReFrames : 5 frames
    Codec ID : avc1
    Codec ID/Info : Advanced Video Coding
    Duration : 1h 26mn
    Bit rate : 1 540 Kbps
    Maximum bit rate : 7 083 Kbps
    Width : 720 pixels
    Height : 400 pixels
    Display aspect ratio : 16:9
    Frame rate mode : Constant
    Frame rate : 25.000 fps
    Color space : YUV
    Chroma subsampling : 4:2:0
    Bit depth : 8 bits
    Scan type : Progressive
    Bits/(Pixel*Frame) : 0.214
    Stream size : 951 MiB (92%)
    Title : PROGETTO.264

    Audio
    ID : 2
    Format : AAC
    Format/Info : Advanced Audio Codec
    Format profile : LC
    Codec ID : 40
    Duration : 1h 26mn
    Bit rate mode : Variable
    Bit rate : 127 Kbps
    Maximum bit rate : 153 Kbps
    Channel(s) : 2 channels
    Channel positions : Front: L R
    Sampling rate : 48.0 KHz
    Compression mode : Lossy
    Stream size : 78.2 MiB (8%)
    Title : PROGETTO.m4a
    Language : English
    Encoded date : UTC 2014-02-08 00:56:40
    Tagged date : UTC 2014-02-08 00:56:41





    DOWNLOAD LINKS

    Code:
    http://www.arabloads.com/0rfsshvjo8py/wwe.friday.night.smackdown.2014.02.07.pdtv.x264-match.mp4.html
    
    http://rapidgator.net/file/708bb4fcbb201299a4145efaa9e6b8d1/wwe.friday.night.smackdown.2014.02.07.pdtv.x264-match.mp4.html
    
    http://uploaded.net/file/4oqs22z9/wwe.friday.night.smackdown.2014.02.07.pdtv.x264-match.mp4
    
    http://turbobit.net/gah65n5etsc8/wwe.friday.night.smackdown.2014.02.07.pdtv.x264-match.mp4.html
    
    http://www.hitfile.net/UHWE/wwe.friday.night.smackdown.2014.02.07.pdtv.x264-match.mp4.html


 

 

Posting Permissions

  • You may not post new threads
  • You may not post replies
  • You may not post attachments
  • You may not edit your posts
  •