Results 1 to 2 of 2
  1. #1
    Hot Member www.desirulez.net
    Join Date
    Feb 2013
    Posts
    1,015

    Cool Chumma Chaati Full Video Song - Mr. Joe B. Carvalho (2013)Soha Ali Khan - 720P

    Follow us on Social Media

















    Code:
    General
    Complete name                            : Chumma Chaati Full Video Song - Mr. Joe B. Carvalho - Arshad Warsi, Soha Ali Khan.mp4
    Format                                   : MPEG-4
    Format profile                           : Base Media / Version 2
    Codec ID                                 : mp42
    File size                                : 86.3 MiB
    Duration                                 : 4mn 10s
    Overall bit rate mode                    : Variable
    Overall bit rate                         : 2 893 Kbps
    Encoded date                             : UTC 2014-02-02 09:41:04
    Tagged date                              : UTC 2014-02-02 09:41:04
    gsst                                     : 0
    gstd                                     : 250380
    gssd                                     : BADC20BC1HH1391791777878811
    gshh                                     : r2---sn-5uaeznee.googlevideo.com
    
    Video
    ID                                       : 1
    Format                                   : AVC
    Format/Info                              : Advanced Video Codec
    Format profile                           : [email protected]
    Format settings, CABAC                   : Yes
    Format settings, ReFrames                : 1 frame
    Codec ID                                 : avc1
    Codec ID/Info                            : Advanced Video Coding
    Duration                                 : 4mn 10s
    Bit rate                                 : 2 698 Kbps
    Maximum bit rate                         : 6 558 Kbps
    Width                                    : 1 280 pixels
    Height                                   : 720 pixels
    Display aspect ratio                     : 16:9
    Frame rate mode                          : Constant
    Frame rate                               : 25.000 fps
    Color space                              : YUV
    Chroma subsampling                       : 4:2:0
    Bit depth                                : 8 bits
    Scan type                                : Progressive
    Bits/(Pixel*Frame)                       : 0.117
    Stream size                              : 80.5 MiB (93%)
    Tagged date                              : UTC 2014-02-02 09:41:07
    
    Audio
    ID                                       : 2
    Format                                   : AAC
    Format/Info                              : Advanced Audio Codec
    Format profile                           : LC
    Codec ID                                 : 40
    Duration                                 : 4mn 10s
    Bit rate mode                            : Variable
    Bit rate                                 : 192 Kbps
    Maximum bit rate                         : 202 Kbps
    Channel count                            : 2 channels
    Channel positions                        : Front: L R
    Sampling rate                            : 44.1 KHz
    Compression mode                         : Lossy
    Stream size                              : 5.73 MiB (7%)
    Title                                    : IsoMedia File Produced by Google, 5-11-2011
    Encoded date                             : UTC 2014-02-02 09:41:06
    Tagged date                              : UTC 2014-02-02 09:41:07


    DOWNLOAD




    ArabloadS

    Code:
    http://www.arabloads.com/agv3ru65ozb2


    FilesflasH

    Code:
    http://filesflash.net/7k3rfv4q



  2. #2
    Senior Member www.desirulez.net
    Join Date
    Feb 2012
    Posts
    131

    Default

    thanks alot dear

 

 

Posting Permissions

  • You may not post new threads
  • You may not post replies
  • You may not post attachments
  • You may not edit your posts
  •