Results 1 to 1 of 1
  1. #1
    dR Rockers www.desirulez.net
    Join Date
    Jun 2011
    Posts
    2,793

    Thumbs up WWE Main Event HDTV 2014 02 05 720p AVCHD SC SDH

    Follow us on Social Media








    General
    Format : MPEG-4
    Format profile : Base Media
    Codec ID : isom
    File size : 1.66 GiB
    Duration : 48mn 54s
    Overall bit rate mode : Variable
    Overall bit rate : 4 868 Kbps
    Writing application : Lavf52.64.2

    Video
    ID : 1
    Format : AVC
    Format/Info : Advanced Video Codec
    Format profile : [email protected]
    Format settings, CABAC : Yes
    Format settings, ReFrames : 3 frames
    Codec ID : avc1
    Codec ID/Info : Advanced Video Coding
    Duration : 48mn 54s
    Bit rate : 4 544 Kbps
    Width : 1 280 pixels
    Height : 720 pixels
    Display aspect ratio : 16:9
    Frame rate mode : Variable
    Frame rate : 29.970 fps
    Minimum frame rate : 29.970 fps
    Maximum frame rate : 30.000 fps
    Standard : Component
    Color space : YUV
    Chroma subsampling : 4:2:0
    Bit depth : 8 bits
    Scan type : Progressive
    Bits/(Pixel*Frame) : 0.165
    Stream size : 1.55 GiB (93%)
    Color primaries : BT.709-5, BT.1361, IEC 61966-2-4, SMPTE RP177
    Transfer characteristics : BT.709-5, BT.1361
    Matrix coefficients : BT.709-5, BT.1361, IEC 61966-2-4 709, SMPTE RP177

    Audio
    ID : 2
    Format : AAC
    Format/Info : Advanced Audio Codec
    Format profile : LC
    Codec ID : 40
    Duration : 48mn 54s
    Duration_LastFrame : -21ms
    Bit rate mode : Variable
    Bit rate : 317 Kbps
    Channel(s) : 2 channels
    Channel positions : Front: L R
    Sampling rate : 48.0 KHz
    Compression mode : Lossy
    Stream size : 111 MiB (7%)
    Language : English





    SINGLE LINKS

    Code:
    
    http://www.arabloads.com/fewtnrfoe49d/WWE_Main_Event_HDTV_2014-02-05_720p_AVCHD-SC-SDH.mp4.html
    
    http://rapidgator.net/file/4b714acaf37e060047581e554c8178cd/WWE_Main_Event_HDTV_2014-02-05_720p_AVCHD-SC-SDH.mp4.html
    
    http://uploaded.net/file/8iqi9y1k/WWE_Main_Event_HDTV_2014-02-05_720p_AVCHD-SC-SDH.mp4
    
    http://turbobit.net/1a4v5l7593ly/WWE_Main_Event_HDTV_2014-02-05_720p_AVCHD-SC-SDH.mp4.html
    
    http://www.hitfile.net/tQHk/WWE_Main_Event_HDTV_2014-02-05_720p_AVCHD-SC-SDH.mp4.html


 

 

Posting Permissions

  • You may not post new threads
  • You may not post replies
  • You may not post attachments
  • You may not edit your posts
  •