Results 1 to 1 of 1
  1. #1
    Senior Member www.desirulez.net
    Join Date
    Mar 2013
    Posts
    123

    Thumbs up Sunny Leone - Ragini MMS2 (2014) (Official Trailer) - 720P - Multi-Links

    Follow us on Social Media





    Sunny Leone - Ragini MMS2 (2014) (Official Trailer) - 720P - Multi-Links



    Code:
    General
    Complete name                            : Sunny Leone.mp4
    Format                                   : MPEG-4
    Format profile                           : Base Media
    Codec ID                                 : isom
    File size                                : 59.2 MiB
    Duration                                 : 3mn 3s
    Overall bit rate                         : 2 706 Kbps
    Writing application                      : Lavf54.18.100
    
    Video
    ID                                       : 1
    Format                                   : AVC
    Format/Info                              : Advanced Video Codec
    Format profile                           : [email protected]
    Format settings, CABAC                   : Yes
    Format settings, ReFrames                : 2 frames
    Codec ID                                 : avc1
    Codec ID/Info                            : Advanced Video Coding
    Duration                                 : 3mn 2s
    Bit rate                                 : 2 591 Kbps
    Width                                    : 1 920 pixels
    Height                                   : 1 080 pixels
    Display aspect ratio                     : 16:9
    Frame rate mode                          : Constant
    Frame rate                               : 24.000 fps
    Color space                              : YUV
    Chroma subsampling                       : 4:2:0
    Bit depth                                : 8 bits
    Scan type                                : Progressive
    Bits/(Pixel*Frame)                       : 0.052
    Stream size                              : 56.4 MiB (95%)
    
    Audio
    ID                                       : 2
    Format                                   : AAC
    Format/Info                              : Advanced Audio Codec
    Format profile                           : LC
    Codec ID                                 : 40
    Duration                                 : 3mn 3s
    Bit rate mode                            : Constant
    Bit rate                                 : 126 Kbps
    Channel count                            : 2 channels
    Channel positions                        : Front: L R
    Sampling rate                            : 44.1 KHz
    Compression mode                         : Lossy
    Delay relative to video                  : 42ms
    Stream size                              : 2.75 MiB (5%)



















    All Credits Goes To Original Ripper (Thanks)


    DOWNLOAD




 

 

Tags for this Thread

Posting Permissions

  • You may not post new threads
  • You may not post replies
  • You may not post attachments
  • You may not edit your posts
  •