Results 1 to 1 of 1
  1. #1
    dR Rockers www.desirulez.net
    Join Date
    Jun 2011
    Posts
    2,793

    Thumbs up WWE Friday Night Smackdown HDTV 2014 01 31 720p AVCHD SC SDH 2.9gb

    Follow us on Social Media










    General
    Format : MPEG-4
    Format profile : Base Media
    Codec ID : isom
    File size : 2.93 GiB
    Duration : 1h 26mn
    Overall bit rate mode : Variable
    Overall bit rate : 4 848 Kbps
    Writing application : Lavf52.64.2

    Video
    ID : 1
    Format : AVC
    Format/Info : Advanced Video Codec
    Format profile : [email protected]
    Format settings, CABAC : Yes
    Format settings, ReFrames : 3 frames
    Codec ID : avc1
    Codec ID/Info : Advanced Video Coding
    Duration : 1h 26mn
    Bit rate : 4 525 Kbps
    Width : 1 280 pixels
    Height : 720 pixels
    Display aspect ratio : 16:9
    Frame rate mode : Variable
    Frame rate : 29.970 fps
    Minimum frame rate : 29.970 fps
    Maximum frame rate : 30.000 fps
    Standard : Component
    Color space : YUV
    Chroma subsampling : 4:2:0
    Bit depth : 8 bits
    Scan type : Progressive
    Bits/(Pixel*Frame) : 0.164
    Stream size : 2.73 GiB (93%)
    Color primaries : BT.709-5, BT.1361, IEC 61966-2-4, SMPTE RP177
    Transfer characteristics : BT.709-5, BT.1361
    Matrix coefficients : BT.709-5, BT.1361, IEC 61966-2-4 709, SMPTE RP177

    Audio
    ID : 2
    Format : AAC
    Format/Info : Advanced Audio Codec
    Format profile : LC
    Codec ID : 40
    Duration : 1h 26mn
    Duration_LastFrame : -21ms
    Bit rate mode : Variable
    Bit rate : 317 Kbps
    Channel(s) : 2 channels
    Channel positions : Front: L R
    Sampling rate : 48.0 KHz
    Compression mode : Lossy
    Stream size : 196 MiB (7%)
    Language : English





    DOWNLOAD LINKS

    Code:
    http://www.arabloads.com/t7pvuy98tyb9/WWE_Friday_Night_Smackdown_HDTV_2014-01-31_720p_AVCHD-SC-SDH.mp4.html
    OR
    http://www.arabloads.com/t600hz63qcpo/WWE_Friday_Night_Smackdown_HDTV_2014-01-31_720p_AVCHD-SC-SDH.part1.rar.html
    http://www.arabloads.com/2h5766j0yse0/WWE_Friday_Night_Smackdown_HDTV_2014-01-31_720p_AVCHD-SC-SDH.part2.rar.html
    
    http://uploaded.net/file/jk2yqqyk/WWE_Friday_Night_Smackdown_HDTV_2014-01-31_720p_AVCHD-SC-SDH.mp4
    OR
    http://uploaded.net/file/z9ulk293/WWE_Friday_Night_Smackdown_HDTV_2014-01-31_720p_AVCHD-SC-SDH.part2.rar
    http://uploaded.net/file/f64avxrg/WWE_Friday_Night_Smackdown_HDTV_2014-01-31_720p_AVCHD-SC-SDH.part1.rar
    
    http://turbobit.net/ou9hir9o910s/WWE_Friday_Night_Smackdown_HDTV_2014-01-31_720p_AVCHD-SC-SDH.mp4.html
    OR
    http://turbobit.net/ns0cerswm5ur/WWE_Friday_Night_Smackdown_HDTV_2014-01-31_720p_AVCHD-SC-SDH.part1.rar.html
    http://turbobit.net/smah5sqq2s0v/WWE_Friday_Night_Smackdown_HDTV_2014-01-31_720p_AVCHD-SC-SDH.part2.rar.html
    
    http://www.hitfile.net/DIx8/WWE_Friday_Night_Smackdown_HDTV_2014-01-31_720p_AVCHD-SC-SDH.mp4.html
    OR
    http://www.hitfile.net/103b/WWE_Friday_Night_Smackdown_HDTV_2014-01-31_720p_AVCHD-SC-SDH.part1.rar.html
    http://www.hitfile.net/B2ka/WWE_Friday_Night_Smackdown_HDTV_2014-01-31_720p_AVCHD-SC-SDH.part2.rar.html
    
    http://rapidgator.net/file/1df5ab377361baa2f2d078774d3c313d/WWE_Friday_Night_Smackdown_HDTV_2014-01-31_720p_AVCHD-SC-SDH.part1.rar.html
    http://rapidgator.net/file/1c9bb416d2bf36aa232bcad85efdab23/WWE_Friday_Night_Smackdown_HDTV_2014-01-31_720p_AVCHD-SC-SDH.part2.rar.html


 

 

Posting Permissions

  • You may not post new threads
  • You may not post replies
  • You may not post attachments
  • You may not edit your posts
  •