Results 1 to 2 of 2
  1. #1

    Wink Immaan Dharam (1977) - 1/3DVDRip - AC3 - E-Subs - XviD - AC3 - TsG

    Follow us on Social Media










    Immaan Dharam (1977) - 1/3DVDRip - AC3 - E-Subs - XviD - AC3 - TsG






    Code:
    Format                           : AVI
    Format/Info                      : Audio Video Interleave
    File size                        : 1.46 GiB
    Duration                         : 2h 36mn
    Overall bit rate                 : 1 334 Kbps
    
    Video
    Format                           : MPEG-4 Visual
    Format profile                   : Streaming [email protected]
    Format settings, BVOP            : Yes
    Format settings, QPel            : Yes
    Format settings, GMC             : No warppoints
    Format settings, Matrix          : Default (H.263)
    Codec ID                         : XVID
    Codec ID/Hint                    : XviD
    Duration                         : 2h 36mn
    Bit rate                         : 1 133 Kbps
    Width                            : 640 pixels
    Height                           : 480 pixels
    Display aspect ratio             : 4/3
    Frame rate                       : 23.976 fps
    Resolution                       : 24 bits
    Colorimetry                      : 4:2:0
    Scan type                        : Progressive
    Bits/(Pixel*Frame)               : 0.154
    Stream size                      : 1.24 GiB (85%)
    
    
    Audio
    Format                           : AC-3
    Format/Info                      : Audio Coding 3
    Codec ID                         : 2000
    Duration                         : 2h 36mn
    Bit rate mode                    : Constant
    Bit rate                         : 192 Kbps
    Channel(s)                       : 6 channels
    Channel positions                : Front: L C R, Surround: L R, LFE
    Sampling rate                    : 48.0 KHz
    Stream size                      : 215 MiB (14%)
    Alignment                        : Split accross interleaves
    Interleave, duration             : 42 ms (1.00 video frame)
    Interleave, preload duration     : 500 ms


































    Rapidshare:
    Code:
    http://rapidshare.com/files/275622334/Immaan_Dharam_1977.XviD.By.TuHiN.TsG.avi.006
    http://rapidshare.com/files/275621130/Immaan_Dharam_1977.XviD.By.TuHiN.TsG.avi.001
    http://rapidshare.com/files/275621323/Immaan_Dharam_1977.XviD.By.TuHiN.TsG.avi.002
    http://rapidshare.com/files/275621689/Immaan_Dharam_1977.XviD.By.TuHiN.TsG.avi.003
    http://rapidshare.com/files/275621843/Immaan_Dharam_1977.XviD.By.TuHiN.TsG.avi.004
    http://rapidshare.com/files/275622047/Immaan_Dharam_1977.XviD.By.TuHiN.TsG.avi.005
    http://rapidshare.com/files/275622633/Immaan_Dharam_1977.XviD.By.TuHiN.TsG.avi.007
    http://rapidshare.com/files/275623022/Immaan_Dharam_1977.XviD.By.TuHiN.TsG.avi.008
    http://rapidshare.com/files/275623409/Immaan_Dharam_1977.XviD.E-Sub.By.TuHiN.TsG.rar


    Hotfile:
    Code:
    http://hotfile.com/dl/11487804/337ecf3/Immaan_Dharam_1977.XviD.By.TuHiN.TsG.avi.001.html
    http://hotfile.com/dl/11487930/3a5dc53/Immaan_Dharam_1977.XviD.By.TuHiN.TsG.avi.002.html
    http://hotfile.com/dl/11487916/f65d7cc/Immaan_Dharam_1977.XviD.By.TuHiN.TsG.avi.003.html
    http://hotfile.com/dl/11487885/2c0656f/Immaan_Dharam_1977.XviD.By.TuHiN.TsG.avi.004.html
    http://hotfile.com/dl/11487983/ef94eae/Immaan_Dharam_1977.XviD.By.TuHiN.TsG.avi.005.html
    http://hotfile.com/dl/11488010/39f6f6d/Immaan_Dharam_1977.XviD.By.TuHiN.TsG.avi.006.html
    http://hotfile.com/dl/11488091/fd2e53f/Immaan_Dharam_1977.XviD.By.TuHiN.TsG.avi.007.html
    http://hotfile.com/dl/11488065/0b6ac9c/Immaan_Dharam_1977.XviD.By.TuHiN.TsG.avi.008.html
    http://hotfile.com/dl/11488032/f00273c/Immaan_Dharam_1977.XviD.E-Sub.By.TuHiN.TsG.rar.html


    Megaupload:
    Code:
    http://www.megaupload.com/?d=U6L0DC8B
    http://www.megaupload.com/?d=DCJN50SY
    http://www.megaupload.com/?d=XRNC0G2X
    http://www.megaupload.com/?d=IL17JBML
    http://www.megaupload.com/?d=DUM4XYFK
    http://www.megaupload.com/?d=CRWDTVEX
    http://www.megaupload.com/?d=ZDQHZCC9
    http://www.megaupload.com/?d=3VES2EV7
    http://www.megaupload.com/?d=KKS2HMKP

  2. #2

    Default

    Nice Old movie..






 

 

Posting Permissions

  • You may not post new threads
  • You may not post replies
  • You may not post attachments
  • You may not edit your posts
  •