Results 1 to 1 of 1
  1. #1
    dR Dazzler www.desirulez.net
    Join Date
    Jun 2010
    Location
    ਪੰਜਾਬ
    Posts
    413

    Default Jarnail Singh (Damdami Taksal Wale) - Sukhmani Sahib - 128 Kbps - MP3

    Follow us on Social Media





    Code:
    Sukhmani Sahib (Ashtapadee 1-5)
    
    Audio
    Format                                   : MPEG Audio
    Format version                           : Version 1
    Format profile                           : Layer 3
    Duration                                 : 17mn 6s
    Bit rate mode                            : Constant
    Bit rate                                 : 128 Kbps
    Channel(s)                               : 2 channels
    Sampling rate                            : 44.1 KHz
    Compression mode                         : Lossy
    Stream size                              : 15.6 MiB (100%)
    
    Ashtapadee 6-12
    
    Audio
    Format                                   : MPEG Audio
    Format version                           : Version 1
    Format profile                           : Layer 3
    Duration                                 : 22mn 16s
    Bit rate mode                            : Constant
    Bit rate                                 : 128 Kbps
    Channel(s)                               : 2 channels
    Sampling rate                            : 44.1 KHz
    Compression mode                         : Lossy
    Stream size                              : 20.3 MiB (100%)
    
    Ashtapadee 13-19
    
    Audio
    Format                                   : MPEG Audio
    Format version                           : Version 1
    Format profile                           : Layer 3
    Duration                                 : 21mn 50s
    Bit rate mode                            : Constant
    Bit rate                                 : 128 Kbps
    Channel(s)                               : 2 channels
    Sampling rate                            : 44.1 KHz
    Compression mode                         : Lossy
    Stream size                              : 19.9 MiB (100%)
    
    Ashtapadee 20-24
    
    Audio
    Format                                   : MPEG Audio
    Format version                           : Version 1
    Format profile                           : Layer 3
    Duration                                 : 18mn 13s
    Bit rate mode                            : Constant
    Bit rate                                 : 128 Kbps
    Channel(s)                               : 2 channels
    Sampling rate                            : 44.1 KHz
    Compression mode                         : Lossy
    Stream size                              : 16.7 MiB (100%)
    ਵਾਹਿਗੁਰੂ ਜੀ ਕਾ ਖਾਲਸਾ ਵਾਹਿਗੁਰੂ ਜੀ ਕੀ ਫਤਿਹ



    http://www.mediafire.com/download/7q...mani+Sahib.zip
    Last edited by DHILLON; 05-04-2014 at 12:35 PM.






 

 

Posting Permissions

  • You may not post new threads
  • You may not post replies
  • You may not post attachments
  • You may not edit your posts
  •