Results 1 to 1 of 1
  1. #1
    dR Rockers www.desirulez.net
    Join Date
    Jun 2011
    Posts
    2,793

    Thumbs up WWE Friday Night Smackdown HDTV 2014 01 03 720p AVCHD SC SDH 2.9gb

    Follow us on Social Media










    General
    Format : MPEG-4
    Format profile : Base Media
    Codec ID : isom
    File size : 2.94 GiB
    Duration : 1h 26mn
    Overall bit rate mode : Variable
    Overall bit rate : 4 866 Kbps
    Writing application : Lavf52.64.2

    Video
    ID : 1
    Format : AVC
    Format/Info : Advanced Video Codec
    Format profile : [email protected]
    Format settings, CABAC : Yes
    Format settings, ReFrames : 3 frames
    Codec ID : avc1
    Codec ID/Info : Advanced Video Coding
    Duration : 1h 26mn
    Bit rate : 4 542 Kbps
    Width : 1 280 pixels
    Height : 720 pixels
    Display aspect ratio : 16:9
    Frame rate mode : Variable
    Frame rate : 29.970 fps
    Minimum frame rate : 29.970 fps
    Maximum frame rate : 30.000 fps
    Standard : Component
    Color space : YUV
    Chroma subsampling : 4:2:0
    Bit depth : 8 bits
    Scan type : Progressive
    Bits/(Pixel*Frame) : 0.164
    Stream size : 2.74 GiB (93%)
    Color primaries : BT.709-5, BT.1361, IEC 61966-2-4, SMPTE RP177
    Transfer characteristics : BT.709-5, BT.1361
    Matrix coefficients : BT.709-5, BT.1361, IEC 61966-2-4 709, SMPTE RP177

    Audio
    ID : 2
    Format : AAC
    Format/Info : Advanced Audio Codec
    Format profile : LC
    Codec ID : 40
    Duration : 1h 26mn
    Duration_LastFrame : -21ms
    Bit rate mode : Variable
    Bit rate : 317 Kbps
    Channel(s) : 2 channels
    Channel positions : Front: L R
    Sampling rate : 48.0 KHz
    Compression mode : Lossy
    Stream size : 196 MiB (7%)
    Language : English


    DOWNLOAD LINKS

    Code:
    http://www.kingfiles.net/n4uz0efuibo4/WWE.Friday.Night.Smackdown.2014.01.03.720p.AVCHD-SC-SDH.mp4
    or
    http://www.kingfiles.net/s1a0bctwzfqv/WWE.Friday.Night.Smackdown.2014.01.03.720p.AVCHD-SC-SDH.mp4.part1.rar
    http://www.kingfiles.net/strhljkpfx1r/WWE.Friday.Night.Smackdown.2014.01.03.720p.AVCHD-SC-SDH.mp4.part2.rar
    
    http://www.arabloads.com/yrrisdd32s2b/WWE.Friday.Night.Smackdown.2014.01.03.720p.AVCHD-SC-SDH.mp4.html
    or
    http://www.arabloads.com/ry2w60hx4qmb/WWE.Friday.Night.Smackdown.2014.01.03.720p.AVCHD-SC-SDH.mp4.part1.rar.html
    http://www.arabloads.com/u07l17od30qe/WWE.Friday.Night.Smackdown.2014.01.03.720p.AVCHD-SC-SDH.mp4.part2.rar.html
    
    http://www.uploadcapital.com/3ry8vsg50ks1/WWE.Friday.Night.Smackdown.2014.01.03.720p.AVCHD-SC-SDH.mp4.html
    or
    http://www.uploadcapital.com/vp29lh5tykx7/WWE.Friday.Night.Smackdown.2014.01.03.720p.AVCHD-SC-SDH.mp4.part1.rar.html
    http://www.uploadcapital.com/w2541rgv7x2g/WWE.Friday.Night.Smackdown.2014.01.03.720p.AVCHD-SC-SDH.mp4.part2.rar.html
    
    http://uploaded.net/file/nbzuq96d/WWE.Friday.Night.Smackdown.2014.01.03.720p.AVCHD-SC-SDH.mp4
    or
    http://uploaded.net/file/epun6ooa/WWE.Friday.Night.Smackdown.2014.01.03.720p.AVCHD-SC-SDH.mp4.part1.rar
    http://uploaded.net/file/aqwa7uy1/WWE.Friday.Night.Smackdown.2014.01.03.720p.AVCHD-SC-SDH.mp4.part2.rar
    
    http://terafile.co/50bc418f4d92/WWE.Friday.Night.Smackdown.2014.01.03.720p.AVCHD-SC-SDH.mp4
    or
    http://terafile.co/014134c1445e/WWE.Friday.Night.Smackdown.2014.01.03.720p.AVCHD-SC-SDH.mp4.part1.rar
    http://terafile.co/2425b2528892/WWE.Friday.Night.Smackdown.2014.01.03.720p.AVCHD-SC-SDH.mp4.part2.rar
    
    http://turbobit.net/viuv4avftc5w/WWE.Friday.Night.Smackdown.2014.01.03.720p.AVCHD-SC-SDH.mp4.html
    or
    http://turbobit.net/i23409sh68x6/WWE.Friday.Night.Smackdown.2014.01.03.720p.AVCHD-SC-SDH.mp4.part2.rar.html
    http://turbobit.net/b116i0hyt7cb/WWE.Friday.Night.Smackdown.2014.01.03.720p.AVCHD-SC-SDH.mp4.part1.rar.html
    
    http://www.hitfile.net/w1oH/WWE.Friday.Night.Smackdown.2014.01.03.720p.AVCHD-SC-SDH.mp4.html
    or
    http://www.hitfile.net/SX4G/WWE.Friday.Night.Smackdown.2014.01.03.720p.AVCHD-SC-SDH.mp4.part2.rar.html
    http://www.hitfile.net/NYWL/WWE.Friday.Night.Smackdown.2014.01.03.720p.AVCHD-SC-SDH.mp4.part1.rar.html


 

 

Posting Permissions

  • You may not post new threads
  • You may not post replies
  • You may not post attachments
  • You may not edit your posts
  •