Results 1 to 1 of 1
  1. #1

    Thumbs up Zehnaseeb- Hasee Toh Phasee (2014)- New Full Video.mp4-(1080p-HD)

    Follow us on Social Media





    Zehnaseeb- Hasee Toh Phasee (2014)- New Full Video.mp4-(1080p-HD)




    General
    Complete name : Hasee Toh Phasee - Zehnaseeb New Full Video-1.mp4
    Format : MPEG-4
    Format profile : Base Media
    Codec ID : isom
    File size : 50.5 MiB
    Duration : 2mn 19s
    Overall bit rate : 3 031 Kbps
    Writing application : Lavf54.18.100

    Video
    ID : 1
    Format : AVC
    Format/Info : Advanced Video Codec
    Format profile : [email protected]
    Format settings, CABAC : Yes
    Format settings, ReFrames : 2 frames
    Codec ID : avc1
    Codec ID/Info : Advanced Video Coding
    Duration : 2mn 18s
    Bit rate mode : Variable
    Bit rate : 2 915 Kbps
    Width : 1 920 pixels
    Height : 1 080 pixels
    Display aspect ratio : 16:9
    Frame rate mode : Constant
    Frame rate : 25.000 fps
    Color space : YUV
    Chroma subsampling : 4:2:0
    Bit depth : 8 bits
    Scan type : Progressive
    Bits/(Pixel*Frame) : 0.056
    Stream size : 48.3 MiB (96%)

    Audio
    ID : 2
    Format : AAC
    Format/Info : Advanced Audio Codec
    Format profile : LC
    Codec ID : 40
    Duration : 2mn 19s
    Bit rate mode : Constant
    Bit rate : 126 Kbps
    Channel(s) : 2 channels
    Channel positions : Front: L R
    Sampling rate : 44.1 KHz
    Compression mode : Lossy
    Stream size : 2.09 MiB (4%)














    Download:


    Code:
    http://uptobox.com/fiuj2zyzi4u3
    
    http://lumfile.com/txqyv2ue2op7/Hasee_Toh_Phasee_-_Zehnaseeb_New_Full_Video-1.mp4.html
    
    http://ryushare.com/v75426g6xiyw/Hasee_Toh_Phasee_-_Zehnaseeb_New_Full_Video-1.mp4
    
    http://rapidgator.net/file/57c65a313433625755b18acd72030d6e/Hasee_Toh_Phasee_-_Zehnaseeb_New_Full_Video-1.mp4.html

 

 

Posting Permissions

  • You may not post new threads
  • You may not post replies
  • You may not post attachments
  • You may not edit your posts
  •