Results 1 to 1 of 1
  1. #1
    Hot Member www.desirulez.net
    Join Date
    Dec 2011
    Posts
    915

    Default WWE.TLC.2013.PPV.DL.German.English.HDTV.x264-DN

    Follow us on Social Media





    WWE.TLC.2013.PPV.DL.German.English.HDTV.x264-DN



    iNFO
    Code:
    WWE.TLC.2013.PPV.DL.German.English.HDTV.x264-DN.mp4
    Format : MPEG-4
    Format profile : Base Media / Version 2
    Codec ID : mp42
    File size : 2.74 GiB
    Duration : 2h 46mn
    Overall bit rate mode : Variable
    Overall bit rate : 2 356 Kbps
    Encoded date : UTC 2013-12-16 05:58:44
    Tagged date : UTC 2013-12-16 07:55:53
    Writing application : HandBrake 0.9.9 2013051800
    
    Video
    ID : 1
    Format : AVC
    Format/Info : Advanced Video Codec
    Format profile : [email protected]
    Format settings, CABAC : Yes
    Format settings, ReFrames : 4 frames
    Codec ID : avc1
    Codec ID/Info : Advanced Video Coding
    Duration : 2h 46mn
    Bit rate mode : Variable
    Bit rate : 2 094 Kbps
    Width : 720 pixels
    Height : 404 pixels
    Display aspect ratio : 16:9
    Frame rate mode : Variable
    Frame rate : 25.000 fps
    Minimum frame rate : 16.667 fps
    Maximum frame rate : 50.000 fps
    Color space : YUV
    Chroma subsampling : 4:2:0
    Bit depth : 8 bits
    Scan type : Progressive
    Bits/(Pixel*Frame) : 0.288
    Stream size : 2.43 GiB (89%)
    Writing library : x264 core 130 r2273 b3065e6
    Encoding settings : cabac=1 / ref=3 / deblock=1:0:0 / analyse=0x3:0x113 / me=hex / subme=7 / psy=1 / psy_rd=1.00:0.00 / mixed_ref=1 / me_range=16 / chroma_me=1 / trellis=1 / 8x8dct=1 / cqm=0 / deadzone=21,11 / fast_pskip=1 / chroma_qp_offset=-2 / threads=6 / lookahead_threads=1 / sliced_threads=0 / nr=0 / decimate=1 / interlaced=0 / bluray_compat=0 / constrained_intra=0 / bframes=3 / b_pyramid=2 / b_adapt=1 / b_bias=0 / direct=1 / weightb=1 / open_gop=0 / weightp=2 / keyint=250 / keyint_min=25 / scenecut=40 / intra_refresh=0 / rc_lookahead=40 / rc=crf / mbtree=1 / crf=19.8 / qcomp=0.60 / qpmin=0 / qpmax=69 / qpstep=4 / vbv_maxrate=17500 / vbv_bufsize=17500 / crf_max=0.0 / nal_hrd=none / ip_ratio=1.40 / aq=1:1.00
    Encoded date : UTC 2013-12-16 05:58:44
    Tagged date : UTC 2013-12-16 07:55:53
    Color primaries : BT.709
    Transfer characteristics : BT.709
    Matrix coefficients : BT.709
    
    Audio #1
    ID : 2
    Format : AAC
    Format/Info : Advanced Audio Codec
    Format profile : LC
    Codec ID : 40
    Duration : 2h 46mn
    Bit rate mode : Variable
    Bit rate : 128 Kbps
    Maximum bit rate : 176 Kbps
    Channel(s) : 2 channels
    Channel positions : Front: L R
    Sampling rate : 48.0 KHz
    Compression mode : Lossy
    Delay relative to video : 100ms
    Stream size : 152 MiB (5%)
    Language : German
    Encoded date : UTC 2013-12-16 05:58:44
    Tagged date : UTC 2013-12-16 07:55:52
    
    Audio #2
    ID : 3
    Format : AAC
    Format/Info : Advanced Audio Codec
    Format profile : LC
    Codec ID : 40
    Duration : 2h 46mn
    Bit rate mode : Variable
    Bit rate : 128 Kbps
    Maximum bit rate : 283 Kbps
    Channel(s) : 2 channels
    Channel positions : Front: L R
    Sampling rate : 48.0 KHz
    Compression mode : Lossy
    Delay relative to video : 100ms
    Stream size : 152 MiB (5%)
    Language : English
    Code:
    http://rapidgator.net/file/50fbc8c14f065b947e4283f0ebc99999/WWE.TLC.2013.PPV.DL.German.English.HDTV.x264-DN.mp4.html
    
    http://uploaded.net/file/li4c6dhg/WWE.TLC.2013.PPV.DL.German.English.HDTV.x264-DN.mp4
    Code:
    http://bitshare.com/files/wg6tlcot/WWE.TLC.2013.PPV.DL.German.English.HDTV.x264-DN.part1.rar.html
    http://bitshare.com/files/6zugf02e/WWE.TLC.2013.PPV.DL.German.English.HDTV.x264-DN.part2.rar.html
    http://bitshare.com/files/jl7sdbwt/WWE.TLC.2013.PPV.DL.German.English.HDTV.x264-DN.part3.rar.html
    
    
    http://freakshare.com/files/ioool4te/WWE.TLC.2013.PPV.DL.German.English.HDTV.x264-DN.part1.rar.html
    http://freakshare.com/files/8e6hafnh/WWE.TLC.2013.PPV.DL.German.English.HDTV.x264-DN.part2.rar.html
    http://freakshare.com/files/b910irpe/WWE.TLC.2013.PPV.DL.German.English.HDTV.x264-DN.part3.rar.html
    
    
    http://rapidgator.net/file/4daa9ae24288b78b096d7524c3fb8622/WWE.TLC.2013.PPV.DL.German.English.HDTV.x264-DN.part1.rar.html
    http://rapidgator.net/file/d8c3ac3c8d96f2ae62ef657fb2e67a7c/WWE.TLC.2013.PPV.DL.German.English.HDTV.x264-DN.part2.rar.html
    http://rapidgator.net/file/4fed5bcaca7747b92c96fd10a8ac7cfa/WWE.TLC.2013.PPV.DL.German.English.HDTV.x264-DN.part3.rar.html
    
    
    http://uploaded.net/file/z59v8asq/WWE.TLC.2013.PPV.DL.German.English.HDTV.x264-DN.part1.rar
    http://uploaded.net/file/8w5m1xf4/WWE.TLC.2013.PPV.DL.German.English.HDTV.x264-DN.part2.rar
    http://uploaded.net/file/pf88xmty/WWE.TLC.2013.PPV.DL.German.English.HDTV.x264-DN.part3.rar
    DONT FORGET TO SAY THANKS

 

 

Posting Permissions

  • You may not post new threads
  • You may not post replies
  • You may not post attachments
  • You may not edit your posts
  •