Results 1 to 1 of 1
  1. #1
    Landed To DesiRulez www.desirulez.net
    Join Date
    Oct 2013
    Posts
    17

    Red face Thread: Artist - 2013 - Malayalam - DVDRip - AVI - 700 Mb

    Follow us on Social Media





    Artist - 2013 - Malayalam - DVDRip - AVI - 800MB
    ************** **************** *************



    ***************************

    Artist - 2013 - Malayalam - DVDRip - AVI - 800MB -

    ***************************








    :: Media Information ::


    Complete name : Artist - 2013 - Malayalam - DVDRip - AVI - 800MB - JaGan -
    Format : AVI
    Format/Info : Audio Video Interleave
    File size : 801 MiB
    Duration : 1h 47mn
    Overall bit rate : 1 042 Kbps
    Writing application : Lavf52.93.0

    Video
    ID : 0
    Format : MPEG-4 Visual
    Format profile : [email protected]
    Format settings, BVOP : No
    Format settings, QPel : No
    Format settings, GMC : No warppoints
    Format settings, Matrix : Default (H.263)
    Codec ID : FMP4
    Duration : 1h 47mn
    Bit rate : 900 Kbps
    Width : 720 pixels
    Height : 320 pixels
    Display aspect ratio : 2.25:1
    Frame rate : 29.970 fps
    Color space : YUV
    Chroma subsampling : 4:2:0
    Bit depth : 8 bits
    Scan type : Progressive
    Compression mode : Lossy
    Bits/(Pixel*Frame) : 0.130
    Stream size : 692 MiB (86%)
    Writing library : Lavc52.108.0

    Audio
    ID : 1
    Format : MPEG Audio
    Format version : Version 1
    Format profile : Layer 2
    Codec ID : 50
    Duration : 1h 47mn
    Bit rate mode : Constant
    Bit rate : 128 Kbps
    Channel(s) : 2 channels
    Sampling rate : 48.0 KHz
    Compression mode : Lossy
    Stream size : 98.4 MiB (12%)
    Alignment : Aligned on interleaves
    Interleave, duration : 24 ms (0.72 video frame)
    Interleave, preload duration : 48 ms
    Title : Artist T80 3_2ch 448Kbps DELAY 0ms




























    **************LINK ***************

    http://uptobox.com/ekfv7x1dm6fw





 

 

Tags for this Thread

Posting Permissions

  • You may not post new threads
  • You may not post replies
  • You may not post attachments
  • You may not edit your posts
  •