Results 1 to 1 of 1
  1. #1

    Default WWE Survivor Series 2013 PPV DL German English HDTV x264 - DN

    Follow us on Social Media





    .

    WWE.Survivor.Series.2013.PPV.DL.German.English.HDTV.x264-DN



    Title: WWE Survivor Series 2013
    Genre: Wrestling
    Language/s: English, German
    Hoster: Uploaded.net, Share-online.biz, Cloudzer.net, Netload.in
    Size: 2589,29 MB
    Parts: 13
    Password: NeXt

    Survivor Series is an upcoming professional wrestling pay-per-view (PPV) event produced by WWE. It will take place on November 24, 2013 at the TD Garden in Boston, and will be the twenty-seventh annual Survivor Series PPV

    nfo:

    [spoiler]
    Code:
    Format                                   : MPEG-4
    Format profile                           : Base Media / Version 2
    Codec ID                                 : mp42
    File size                                : 2.51 GiB
    Duration                                 : 2h 43mn
    Overall bit rate mode                    : Variable
    Overall bit rate                         : 2 193 Kbps
    Encoded date                             : UTC 2013-11-25 05:41:25
    Tagged date                              : UTC 2013-11-25 07:27:15
    Writing application                      : HandBrake 0.9.9 2013051800
    
    Video
    ID                                       : 1
    Format                                   : AVC
    Format/Info                              : Advanced Video Codec
    Format profile                           : [email protected]
    Format settings, CABAC                   : Yes
    Format settings, ReFrames                : 4 frames
    Codec ID                                 : avc1
    Codec ID/Info                            : Advanced Video Coding
    Duration                                 : 2h 43mn
    Duration_LastFrame                       : 40ms
    Bit rate mode                            : Variable
    Bit rate                                 : 1 930 Kbps
    Width                                    : 720 pixels
    Height                                   : 404 pixels
    Display aspect ratio                     : 16:9
    Frame rate mode                          : Constant
    Frame rate                               : 25.000 fps
    Color space                              : YUV
    Chroma subsampling                       : 4:2:0
    Bit depth                                : 8 bits
    Scan type                                : Progressive
    Bits/(Pixel*Frame)                       : 0.265
    Stream size                              : 2.21 GiB (88%)
    Writing library                          : x264 core 130 r2273 b3065e6
    Encoding settings                        : cabac=1 / ref=3 / deblock=1:0:0 / analyse=0x3:0x113 / me=hex / subme=7 / psy=1 / psy_rd=1.00:0.00 / mixed_ref=1 / me_range=16 / chroma_me=1 / trellis=1 / 8x8dct=1 / cqm=0 / deadzone=21,11 / fast_pskip=1 / chroma_qp_offset=-2 / threads=6 / lookahead_threads=1 / sliced_threads=0 / nr=0 / decimate=1 / interlaced=0 / bluray_compat=0 / constrained_intra=0 / bframes=3 / b_pyramid=2 / b_adapt=1 / b_bias=0 / direct=1 / weightb=1 / open_gop=0 / weightp=2 / keyint=250 / keyint_min=25 / scenecut=40 / intra_refresh=0 / rc_lookahead=40 / rc=crf / mbtree=1 / crf=21.0 / qcomp=0.60 / qpmin=0 / qpmax=69 / qpstep=4 / vbv_maxrate=17500 / vbv_bufsize=17500 / crf_max=0.0 / nal_hrd=none / ip_ratio=1.40 / aq=1:1.00
    Encoded date                             : UTC 2013-11-25 05:41:25
    Tagged date                              : UTC 2013-11-25 07:27:15
    Color primaries                          : BT.709
    Transfer characteristics                 : BT.709
    Matrix coefficients                      : BT.709
    
    Audio #1
    ID                                       : 2
    Format                                   : AAC
    Format/Info                              : Advanced Audio Codec
    Format profile                           : LC
    Codec ID                                 : 40
    Duration                                 : 2h 43mn
    Bit rate mode                            : Variable
    Bit rate                                 : 128 Kbps
    Maximum bit rate                         : 247 Kbps
    Channel(s)                               : 2 channels
    Channel positions                        : Front: L R
    Sampling rate                            : 48.0 KHz
    Compression mode                         : Lossy
    Delay relative to video                  : 80ms
    Stream size                              : 150 MiB (6%)
    Language                                 : German
    Encoded date                             : UTC 2013-11-25 05:41:25
    Tagged date                              : UTC 2013-11-25 07:27:15
    
    Audio #2
    ID                                       : 3
    Format                                   : AAC
    Format/Info                              : Advanced Audio Codec
    Format profile                           : LC
    Codec ID                                 : 40
    Duration                                 : 2h 43mn
    Bit rate mode                            : Variable
    Bit rate                                 : 128 Kbps
    Maximum bit rate                         : 268 Kbps
    Channel(s)                               : 2 channels
    Channel positions                        : Front: L R
    Sampling rate                            : 48.0 KHz
    Compression mode                         : Lossy
    Delay relative to video                  : 80ms
    Stream size                              : 150 MiB (6%)
    Language                                 : English
    [/spoiler]

    Mirror: 1

    Uploaded.net
    Code:
    http://ul.to/dxgzcdy4
    http://ul.to/l6cn1n96
    http://ul.to/8joyxl71
    http://ul.to/0bmmturh
    http://ul.to/qoyx33sj
    http://ul.to/bxgluyqp
    http://ul.to/xm51he1u
    http://ul.to/v0xpkcps
    http://ul.to/egq5agz5
    http://ul.to/22jwacgk
    http://ul.to/kkshqyt4
    http://ul.to/uueoob90
    http://ul.to/0vombsy7
    Mirror: 2

    Share-online.biz
    Code:
    http://www.share-online.biz/dl/OA8VNTWMSP
    http://www.share-online.biz/dl/IP0VNTWMYM
    http://www.share-online.biz/dl/XBYUNTWMP5E
    http://www.share-online.biz/dl/C8UUNTWMBDE
    http://www.share-online.biz/dl/T7HUNTWM122
    http://www.share-online.biz/dl/34BUNTWM8N8
    http://www.share-online.biz/dl/CS5UNTWMBY1
    http://www.share-online.biz/dl/6C4UNTWMBPZ
    http://www.share-online.biz/dl/7BQTNTWMO7
    http://www.share-online.biz/dl/VNQTNTWM4RP
    http://www.share-online.biz/dl/S5KTNTWMPX
    http://www.share-online.biz/dl/RBETNTWMWT
    http://www.share-online.biz/dl/OH8TNTWMXIC
    Mirror: 3

    Cloudzer.net
    Code:
    http://clz.to/z1tl1jrn
    http://clz.to/q9zsjwo8
    http://clz.to/58lsl2c3
    http://clz.to/j3fe744a
    http://clz.to/0zuhbhpa
    http://clz.to/lxp05e2m
    http://clz.to/iwumbv9w
    http://clz.to/ybr7pcn0
    http://clz.to/ns8q9ixn
    http://clz.to/covmrn25
    http://clz.to/zhg6ntg2
    http://clz.to/vnx7lnbu
    http://clz.to/8cqwdbfa
    Mirror: 4

    Netload.in
    Code:
    http://www.netload.in/dateiSzP3Tmk72j/WWE.Survivor.Series.2013-DN.part13.rar.htm
    http://www.netload.in/dateig4SUBvFsuX/WWE.Survivor.Series.2013-DN.part12.rar.htm
    http://www.netload.in/dateiumxqhOuy9M/WWE.Survivor.Series.2013-DN.part11.rar.htm
    http://www.netload.in/dateiC2pYYg1rnB/WWE.Survivor.Series.2013-DN.part10.rar.htm
    http://www.netload.in/dateiUZCqiPBHVR/WWE.Survivor.Series.2013-DN.part09.rar.htm
    http://www.netload.in/dateiZmvezlyRJf/WWE.Survivor.Series.2013-DN.part08.rar.htm
    http://www.netload.in/dateigwmUwVkflg/WWE.Survivor.Series.2013-DN.part07.rar.htm
    http://www.netload.in/dateiSj4MoBU09N/WWE.Survivor.Series.2013-DN.part06.rar.htm
    http://www.netload.in/dateiWaDiHun8Ff/WWE.Survivor.Series.2013-DN.part05.rar.htm
    http://www.netload.in/datei8LAeHzZbvr/WWE.Survivor.Series.2013-DN.part04.rar.htm
    http://www.netload.in/datei8wLQlYXkat/WWE.Survivor.Series.2013-DN.part03.rar.htm
    http://www.netload.in/dateinlSRSlis9P/WWE.Survivor.Series.2013-DN.part02.rar.htm
    http://www.netload.in/dateibIlhwrHbw5/WWE.Survivor.Series.2013-DN.part01.rar.htm
    .

 

 

Posting Permissions

  • You may not post new threads
  • You may not post replies
  • You may not post attachments
  • You may not edit your posts
  •