Results 1 to 1 of 1
  1. #1
    dR Rockers www.desirulez.net
    Join Date
    Jun 2011
    Posts
    2,793

    Thumbs up WWE Friday Night Smackdown 2013 11 08 HDTV XviD-AFG 700Mb

    Follow us on Social Media








    General
    Format : AVI
    Format/Info : Audio Video Interleave
    File size : 723 MiB
    Duration : 1h 25mn
    Overall bit rate mode : Variable
    Overall bit rate : 1 180 Kbps

    Video
    ID : 0
    Format : MPEG-4 Visual
    Format profile : Advanced [email protected]
    Format settings, BVOP : 2
    Format settings, QPel : No
    Format settings, GMC : No warppoints
    Format settings, Matrix : Default (H.263)
    Codec ID : XVID
    Codec ID/Hint : XviD
    Duration : 1h 25mn
    Bit rate : 1 039 Kbps
    Width : 640 pixels
    Height : 360 pixels
    Display aspect ratio : 16:9
    Frame rate : 25.000 fps
    Color space : YUV
    Chroma subsampling : 4:2:0
    Bit depth : 8 bits
    Scan type : Progressive
    Compression mode : Lossy
    Bits/(Pixel*Frame) : 0.180
    Stream size : 637 MiB (88%)
    Writing library : XviD 64

    Audio
    ID : 1
    Format : MPEG Audio
    Format version : Version 1
    Format profile : Layer 3
    Mode : Joint stereo
    Mode extension : MS Stereo
    Codec ID : 55
    Codec ID/Hint : MP3
    Duration : 1h 25mn
    Bit rate mode : Variable
    Bit rate : 128 Kbps
    Channel(s) : 2 channels
    Sampling rate : 48.0 KHz
    Compression mode : Lossy
    Stream size : 78.4 MiB (11%)
    Alignment : Aligned on interleaves
    Interleave, duration : 24 ms (0.60 video frame)
    Interleave, preload duration : 178 ms









    DOWNLOAD LINKS

    Code:
    http://www.anafile.com/hv8a7javqgwb/WWE.Friday.Night.Smackdown.2013.11.08.HDTV.XviD-AFG.avi.html
    
    http://uploaded.net/file/ar79id58/WWE.Friday.Night.Smackdown.2013.11.08.HDTV.XviD-AFG.avi
    
    http://turbobit.net/40msyme5pu8q/WWE.Friday.Night.Smackdown.2013.11.08.HDTV.XviD-AFG.avi.html
    
    http://www.hitfile.net/eTNj/WWE.Friday.Night.Smackdown.2013.11.08.HDTV.XviD-AFG.avi.html
    
    http://junocloud.me/46eyhlvgwniq/WWE.Friday.Night.Smackdown.2013.11.08.HDTV.XviD-AFG.avi.html
    
    http://fileom.com/rsrpbjftmn8u/WWE.Friday.Night.Smackdown.2013.11.08.HDTV.XviD-AFG.avi.html




 

 

Posting Permissions

  • You may not post new threads
  • You may not post replies
  • You may not post attachments
  • You may not edit your posts
  •