Results 1 to 1 of 1
  1. #1
    dR Rockers www.desirulez.net
    Join Date
    Jun 2011
    Posts
    2,793

    Thumbs up WWE Monday Night RAW 2013 11 11 720p HDTV x264-KYR 4.1GB

    Follow us on Social Media









    General
    Format : Matroska
    Format version : Version 4 / Version 2
    File size : 4.18 GiB
    Duration : 2h 12mn
    Overall bit rate : 4 531 Kbps
    Encoded date : UTC 2013-11-12 08:11:31
    Writing application : mkvmerge v6.3.0 ('You can't stop me!') built on Jun 28 2013 20:09:41
    Writing library : libebml v1.3.0 + libmatroska v1.4.0

    Video
    ID : 1
    Format : AVC
    Format/Info : Advanced Video Codec
    Format profile : [email protected]
    Format settings, CABAC : Yes
    Format settings, ReFrames : 5 frames
    Codec ID : V_MPEG4/ISO/AVC
    Duration : 2h 12mn
    Bit rate : 4 057 Kbps
    Width : 1 280 pixels
    Height : 720 pixels
    Display aspect ratio : 16:9
    Frame rate : 29.970 fps
    Color space : YUV
    Chroma subsampling : 4:2:0
    Bit depth : 8 bits
    Scan type : Progressive
    Bits/(Pixel*Frame) : 0.147
    Stream size : 3.74 GiB (90%)
    Writing library : x264 core 140 r2377 1ca7bb9
    Encoding settings : cabac=1 / ref=5 / deblock=1:0:0 / analyse=0x3:0x113 / me=umh / subme=8 / psy=1 / psy_rd=1.00:0.00 / mixed_ref=1 / me_range=16 / chroma_me=1 / trellis=1 / 8x8dct=1 / cqm=0 / deadzone=21,11 / fast_pskip=1 / chroma_qp_offset=-2 / threads=18 / lookahead_threads=3 / sliced_threads=0 / nr=0 / decimate=1 / interlaced=0 / bluray_compat=0 / constrained_intra=0 / bframes=3 / b_pyramid=2 / b_adapt=2 / b_bias=0 / direct=3 / weightb=1 / open_gop=0 / weightp=2 / keyint=250 / keyint_min=25 / scenecut=40 / intra_refresh=0 / rc_lookahead=50 / rc=crf / mbtree=1 / crf=23.0 / qcomp=0.60 / qpmin=0 / qpmax=69 / qpstep=4 / ip_ratio=1.40 / aq=1:1.00
    Language : English
    Default : Yes
    Forced : No

    Audio
    ID : 2
    Format : AC-3
    Format/Info : Audio Coding 3
    Mode extension : CM (complete main)
    Codec ID : A_AC3
    Duration : 2h 12mn
    Bit rate mode : Constant
    Bit rate : 384 Kbps
    Channel(s) : 6 channels
    Channel positions : Front: L C R, Side: L R, LFE
    Sampling rate : 48.0 KHz
    Bit depth : 16 bits
    Compression mode : Lossy
    Delay relative to video : 61ms
    Stream size : 363 MiB (8%)
    Default : Yes
    Forced : No






    DOWNLOAD LINKS
    Code:
    SINGLE LINKS
    
    http://uploaded.net/file/8z9n5ha3/WWE.Monday.Night.RAW.2013.11.11.720p.HDTV.x264-KYR.mkv
    
    http://www.hitfile.net/6XlX/WWE.Monday.Night.RAW.2013.11.11.720p.HDTV.x264-KYR.mkv.html
    
    http://turbobit.net/fgv4uwchro76/WWE.Monday.Night.RAW.2013.11.11.720p.HDTV.x264-KYR.mkv.html
    
    
    
    SPLIT LINKS
    
    http://uploaded.net/file/jflunm95/WWE.Monday.Night.RAW.2013.11.11.720p.HDTV.x264-KYR.mkv.part4.rar
    http://uploaded.net/file/r56f3bxf/WWE.Monday.Night.RAW.2013.11.11.720p.HDTV.x264-KYR.mkv.part3.rar
    http://uploaded.net/file/59ti4w63/WWE.Monday.Night.RAW.2013.11.11.720p.HDTV.x264-KYR.mkv.part1.rar
    http://uploaded.net/file/4tq83lg1/WWE.Monday.Night.RAW.2013.11.11.720p.HDTV.x264-KYR.mkv.part2.rar
    http://uploaded.net/file/9zb9zvpm/WWE.Monday.Night.RAW.2013.11.11.720p.HDTV.x264-KYR.mkv.part5.rar
    
    http://www.anafile.com/zbhfwmzrtklu.html
    http://www.anafile.com/58e1dsrcmdv5.html
    http://www.anafile.com/3stwxsbwksqn.html
    http://www.anafile.com/kfhef00hepde.html
    http://www.anafile.com/qnvafjtnblk3.html
    
    
    http://turbobit.net/v19g377q50b2/WWE.Monday.Night.RAW.2013.11.11.720p.HDTV.x264-KYR.mkv.part1.rar.html
    http://turbobit.net/a5cbj1z8qnqp/WWE.Monday.Night.RAW.2013.11.11.720p.HDTV.x264-KYR.mkv.part2.rar.html
    http://turbobit.net/btzg6ba4d3n7/WWE.Monday.Night.RAW.2013.11.11.720p.HDTV.x264-KYR.mkv.part3.rar.html
    http://turbobit.net/voi242oz6n5o/WWE.Monday.Night.RAW.2013.11.11.720p.HDTV.x264-KYR.mkv.part4.rar.html
    http://turbobit.net/heveav3nh2dw/WWE.Monday.Night.RAW.2013.11.11.720p.HDTV.x264-KYR.mkv.part5.rar.html
    
    
    http://www.hitfile.net/nDuR/WWE.Monday.Night.RAW.2013.11.11.720p.HDTV.x264-KYR.mkv.part1.rar.html
    http://www.hitfile.net/Ojsd/WWE.Monday.Night.RAW.2013.11.11.720p.HDTV.x264-KYR.mkv.part2.rar.html
    http://www.hitfile.net/Z5EI/WWE.Monday.Night.RAW.2013.11.11.720p.HDTV.x264-KYR.mkv.part3.rar.html
    http://www.hitfile.net/tgBg/WWE.Monday.Night.RAW.2013.11.11.720p.HDTV.x264-KYR.mkv.part4.rar.html
    http://www.hitfile.net/Zo7R/WWE.Monday.Night.RAW.2013.11.11.720p.HDTV.x264-KYR.mkv.part5.rar.html



 

 

Posting Permissions

  • You may not post new threads
  • You may not post replies
  • You may not post attachments
  • You may not edit your posts
  •